Классический форум-трекер
canvas not supported
Нас вместе: 4 094 373

Цвет денег / The Color of Money (1986) [720p] BDRip


 
 
RSS
Начать новую тему   Ответить на тему    Торрент-трекер NNM-Club -> Классика кино и Старые фильмы до 90-х -> Старые Зарубежные Фильмы (HD, UHD, UHD-LQ, 3D)
Автор Сообщение
Den4ik_Rus_66 ®
Стаж: 7 лет 9 мес.
Сообщений: 198
Ratio: 1M
Раздал: 70,6 TB
Поблагодарили: 26607
100%
Откуда: С другой планеты
Цвет денег / The Color of Money (1986) BDRip
«The hustler isn't what he used to be, but he has the next best thing: a kid who is»

Русское название: Цвет денег
Оригинальное название: The Color of Money
Год выпуска: 1986
Страна: США
Жанр: Драма, Спорт
Описание фильма:
Быстрому Эдди, виртуозному игроку в бильярд, нет равных за зеленым столом. Для других это развлечение, для него — серьезная работа и большие деньги. У него появляется конкурент, новичок Винц, у которого есть все, что нужно для победы: талант, везение и поддержка обворожительной подруги, но ему не хватает почерка мастера.
Эдди становится его наставником и учит восходящую звезду тонкостям большой игры. На зеленом сукне, цвета денег, один на один с судьбой…
Режиссер: Мартин Скорсезе
Продюсер: Ирвинг Аксельрод, Барбара Де Фина, Доди Фостер
Актеры: Пол Ньюман, Том Круз, Мэри Элизабет Мастрантонио, Форест Уитакер, Джон Туртурро, Игги Поп, Хелен Шейвер, Билл Коббс, Элвин Анастасия, Элизабет Бракко, Вито Д’Амброзио
Продолжительность: 01:59:38
Перевод: Дублированный, Двухголосый, Многоголосый, Одноголосый
Язык субтитров: Русские (2 вида), Английские
Вид субтитров: Вшитые, отключаемые

Дата мировой премьеры: 8 октября 1986
Дата выхода DVD релиза: 2 августа 2011, «Уолт Дисней Компани СНГ»
Качество видео: BDRip
Контейнер: MKV
Видеокодек: MPEG-4 AVC/H.264
Аудиокодек: AC-3, DTS
Видео: 1280x692, 23.976 fps, ~6290 kb/s
Аудио 1: Русский, AC-3, 192 kbps, 2 канала, 16 bit, (L, R) - Дублированный
Аудио 2: Русский, AC-3, 384 kbps, 6 каналов, 16 bit, (L, C, R, l, r) + LFE - Двухголосый (HTB+)
Аудио 3: Русский, AC-3, 384 kbps, 6 каналов, 16 bit, (L, C, R, l, r) + LFE - Многоголосый (R5)
Аудио 4: Русский, AC-3, 384 kbps, 6 каналов, 16 bit, (L, C, R, l, r) + LFE - Одноголосый (А.Михалев)
Аудио 10: Английский, DTS, 1510 kbps, 6 каналов, 24 bit, (L, C, R, l, r) + LFE - Оригинал
Формат : Matroska
Версия формата : Version 2
Размер файла : 7,64 Гбайт
Продолжительность : 1 ч. 59 м.
Общий поток : 9141 Кбит/сек
Дата кодирования : UTC 2012-05-31 08:54:47
Программа кодирования : mkvmerge v5.0.1 ('Es ist Sommer') built on Oct 9 2011 11:55:43
Библиотека кодирования : libebml v1.2.2 + libmatroska v1.3.0

Видео
Идентификатор : 1
Формат : AVC
Формат/Информация : Advanced Video Codec
Профиль формата : High@L4.1
Параметр CABAC формата : Да
Параметр ReFrames формата : 9 кадров
Идентификатор кодека : V_MPEG4/ISO/AVC
Продолжительность : 1 ч. 59 м.
Битрейт : 6290 Кбит/сек
Ширина : 1280 пикселей
Высота : 692 пикселя
Соотношение сторон : 1,850
Частота кадров : 23,976 кадра/сек
Цветовое пространство : YUV
Субдискретизация насыщенности : 4:2:0
Битовая глубина : 8 бит
Тип развёртки : Прогрессивная
Бит/(Пиксели*Кадры) : 0.296
Размер потока : 5,10 Гбайт (67%)
Библиотека кодирования : x264 core 122 r2184 5c85e0a
Настройки программы : cabac=1 / ref=9 / deblock=1:-3:-3 / analyse=0x3:0x133 / me=umh / subme=11 / psy=1 / psy_rd=1.05:0.05 / mixed_ref=1 / me_range=32 / chroma_me=1 / trellis=2 / 8x8dct=1 / cqm=0 / deadzone=21,11 / fast_pskip=0 / chroma_qp_offset=-3 / threads=12 / sliced_threads=0 / nr=0 / decimate=1 / interlaced=0 / bluray_compat=0 / constrained_intra=0 / bframes=8 / b_pyramid=2 / b_adapt=2 / b_bias=0 / direct=3 / weightb=1 / open_gop=0 / weightp=2 / keyint=250 / keyint_min=23 / scenecut=40 / intra_refresh=0 / rc_lookahead=250 / rc=2pass / mbtree=1 / bitrate=6290 / ratetol=1.0 / qcomp=0.60 / qpmin=0 / qpmax=69 / qpstep=4 / cplxblur=20.0 / qblur=0.5 / ip_ratio=1.40 / aq=1:0.90
Язык : English
Default : Да
Forced : Нет

Аудио #1
Идентификатор : 2
Формат : AC-3
Формат/Информация : Audio Coding 3
Расширение режима : CM (complete main)
Идентификатор кодека : A_AC3
Продолжительность : 1 ч. 59 м.
Вид битрейта : Постоянный
Битрейт : 192 Кбит/сек
Каналы : 2 канала
Расположение каналов : Front: L R
Частота : 48,0 КГц
Битовая глубина : 16 бит
Метод сжатия : С потерями
Размер потока : 164 Мбайт (2%)
Заголовок : DUB
Язык : Russian
Default : Да
Forced : Нет

Аудио #2
Идентификатор : 3
Формат : AC-3
Формат/Информация : Audio Coding 3
Расширение режима : CM (complete main)
Идентификатор кодека : A_AC3
Продолжительность : 1 ч. 59 м.
Вид битрейта : Постоянный
Битрейт : 384 Кбит/сек
Каналы : 2 канала
Расположение каналов : Front: L R
Частота : 48,0 КГц
Битовая глубина : 16 бит
Метод сжатия : С потерями
Размер потока : 329 Мбайт (4%)
Заголовок : DVO НТВ+
Язык : Russian
Default : Нет
Forced : Нет

Аудио #3
Идентификатор : 4
Формат : AC-3
Формат/Информация : Audio Coding 3
Расширение режима : CM (complete main)
Идентификатор кодека : A_AC3
Продолжительность : 1 ч. 59 м.
Вид битрейта : Постоянный
Битрейт : 384 Кбит/сек
Каналы : 6 каналов
Расположение каналов : Front: L C R, Side: L R, LFE
Частота : 48,0 КГц
Битовая глубина : 16 бит
Метод сжатия : С потерями
Размер потока : 329 Мбайт (4%)
Заголовок : MVO R5
Язык : Russian
Default : Нет
Forced : Нет

Аудио #4
Идентификатор : 5
Формат : AC-3
Формат/Информация : Audio Coding 3
Расширение режима : CM (complete main)
Идентификатор кодека : A_AC3
Продолжительность : 1 ч. 59 м.
Вид битрейта : Постоянный
Битрейт : 384 Кбит/сек
Каналы : 6 каналов
Расположение каналов : Front: L C R, Side: L R, LFE
Частота : 48,0 КГц
Битовая глубина : 16 бит
Метод сжатия : С потерями
Размер потока : 329 Мбайт (4%)
Заголовок : AVO А.Михалев
Язык : Russian
Default : Нет
Forced : Нет

Аудио #5
Идентификатор : 6
Формат : DTS
Формат/Информация : Digital Theater Systems
Идентификатор кодека : A_DTS
Продолжительность : 1 ч. 59 м.
Вид битрейта : Постоянный
Битрейт : 1510 Кбит/сек
Каналы : 6 каналов
Расположение каналов : Front: L C R, Side: L R, LFE
Частота : 48,0 КГц
Битовая глубина : 24 бит
Метод сжатия : С потерями
Размер потока : 1,26 Гбайт (17%)
Заголовок : original
Язык : English
Default : Нет
Forced : Нет

Текст #1
Идентификатор : 7
Формат : UTF-8
Идентификатор кодека : S_TEXT/UTF8
Идентификатор кодека/Информация : UTF-8 Plain Text
Заголовок : sub R5
Язык : Russian
Default : Нет
Forced : Нет

Текст #2
Идентификатор : 8
Формат : UTF-8
Идентификатор кодека : S_TEXT/UTF8
Идентификатор кодека/Информация : UTF-8 Plain Text
Заголовок : sub gogi0001
Язык : Russian
Default : Нет
Forced : Нет

Текст #3
Идентификатор : 9
Формат : UTF-8
Идентификатор кодека : S_TEXT/UTF8
Идентификатор кодека/Информация : UTF-8 Plain Text
Заголовок : sub
Язык : English
Default : Нет
Forced : Нет

Скриншоты:





Не забудь сказать -
Всем приятного просмотра!!!
Время раздачи: 24/7 до 5 сидов
TSvet deneg.mkv[nnm-club.ru].torrent
 Торрент: Платиновая раздача  Зарегистрирован
 
Скачать


 Зарегистрирован:   08 Авг 2012 08:40:41
 Размер:   7,64 GB  (
 Рейтинг:   4,8 (Голосов: 21)
 Поблагодарили:   85
 Проверка:   Оформление проверено модератором 08 Авг 2012 22:03:10
Как cкачать  ·  Как раздать  ·  Правильно оформить  ·  Поднять ратио!  

_________________
Нет девушки, Нет денег, Несправедливо? Мне пофиг, Я, Раздолбай!
Евгений66
Стаж: 9 лет 7 мес.
Сообщений: 36
Ratio: 6,062
100%
russia.gif
Я встречал мнение, что правильный перевод названия фильма - цвЕта денег. Сукно на столе для бильярда цвета денег.
MIKE555
Стаж: 12 лет
Сообщений: 57
Ratio: 58,221
100%
Откуда: moscow
russia.gif
Это всего лишь мнение америкосов с их зелёными деньгами.
А фильм зачетный, мастерство главрежа Скорсезе - налицо.
Показать сообщения:   
Начать новую тему   Ответить на тему    Торрент-трекер NNM-Club -> Классика кино и Старые фильмы до 90-х -> Старые Зарубежные Фильмы (HD, UHD, UHD-LQ, 3D) Часовой пояс: GMT + 3
Страница 1 из 1