Классический форум-трекер
canvas not supported
Нас вместе: 4 078 880

Церемония закрытия летних Олимпийских Игр. Лондон (2012) HDTV [H.264/1080i]


 
 
RSS
Начать новую тему   Ответить на тему    Торрент-трекер NNM-Club -> Спорт и активный отдых -> XXX Летние Олимпийские игры. Лондон 2012
Автор Сообщение
Lelya_K ®
Стаж: 8 лет 6 мес.
Сообщений: 5538
Ratio: 7169,418
Раздал: 109,3 TB
Поблагодарили: 618951
100%
Откуда: Московская область
nnm-club.gif
Церемония закрытия летних Олимпийских Игр. Лондон (2012) HDTV
Название: Церемония закрытия летних Олимпийских Игр. Лондон
Режиссер / Телекомпания: Россия, HD Спорт (НТВ+)
Год выпуска: 2012
Жанр: Телепередача, спорт, шоу
Перевод: Двухголосый закадровый (А. Дмитриева, И. Швецов)

Описание:
На закрытии ХХХ Олимпийских игр будут обыграны три основные идеи этого торжества: поздравления и приветствия спортсменам, достигшим новых спортивных побед, передача олимпийской эстафеты на проведение Олимпиады-2016 от Лондона Рио-де-Жанейро и погашение олимпийского огня, символизирующее окончание Игр. «Симфония британской музыки» (A Symphony of British Music) — такое название дали церемони закрытия художественный руководитель Ким Гэвин (Kim Gavin) и его творческая команда. В постановке, по словам режиссера, воплощены культурные традиции Лондона и всей Великобритании. Главной темой «Симфонии» будет, естественно, музыка, которая, как полагают британцы, является одной из самых значительных культурных ценностей страны особенно на протяжении последних 50 лет.

Продолжительность: 03:11:16
Качество видео: HDTV

Видео: MPEG4_AVC/H.264, 1920x1080, ~12.7 Mbps, Bit/Pixel: 0.245
Аудио: AC3 2.0, 448 kbps [Русский - двухголосый закадровый]
Полное имя : D:\Церемония.закрытия.летних.Олимпийских.игр.Лондон.(2012).[1080i].HDTV.ts
Формат : MPEG-TS
Размер файла : 18,5 Гбайт
Продолжительность : 3 ч. 11 м.
Режим общего битрейта : Переменный
Общий поток : 13,8 Мбит/сек
Максимальный общий битрейт : 35,5 Мбит/сек

Видео
Идентификатор : 4113 (0x1011)
Идентификатор меню : 1 (0x1)
Формат : AVC
Формат/Информация : Advanced Video Codec
Профиль формата : Main@L4.0
Параметр CABAC формата : Да
Параметр ReFrames формата : 4 кадра
Идентификатор кодека : 27
Продолжительность : 3 ч. 11 м.
Вид битрейта : Переменный
Битрейт : 12,7 Мбит/сек
Максимальный битрейт : 40,0 Мбит/сек
Ширина : 1920 пикселей
Высота : 1080 пикселей
Соотношение сторон : 16:9
Частота кадров : 25,000 кадров/сек
Стандарт вещания : Component
Цветовое пространство : YUV
Субдискретизация насыщенности : 4:2:0
Битовая глубина : 8 бит
Тип развёртки : Чересстрочная
Порядок развёртки : Верхнее поле первое
Бит/(Пиксели*Кадры) : 0.245
Размер потока : 17,0 Гбайт (92%)
Основные цвета : BT.709-5, BT.1361, IEC 61966-2-4, SMPTE RP177
Характеристики трансфера : BT.709-5, BT.1361
Коэффициенты матрицы : BT.709-5, BT.1361, IEC 61966-2-4 709, SMPTE RP177

Аудио
Идентификатор : 4352 (0x1100)
Идентификатор меню : 1 (0x1)
Формат : AC-3
Формат/Информация : Audio Coding 3
Расширение режима : CM (complete main)
Параметр Endianness формата : Big
Идентификатор кодека : 129
Продолжительность : 3 ч. 11 м.
Вид битрейта : Постоянный
Битрейт : 448 Кбит/сек
Каналы : 2 канала
Расположение каналов : Front: L R
Частота : 48,0 КГц
Битовая глубина : 16 бит
Метод сжатия : С потерями
Задержка видео : 56 мс.
Размер потока : 613 Мбайт (3%)
Язык : Russian
Скриншоты:


Время раздачи: 24/7 (до 10 скачавших)
[NNM-Club.ru]_TSeremoniya.zakryitiya.letnih.Olimpiyskih.igr.London.(2012).[1080i].HDTV.ts.torrent
 Торрент: Платиновая раздача  Зарегистрирован
 
Скачать


Примагнититься
 Зарегистрирован:   13 Авг 2012 12:15:28
 Размер:   18,5 GB  (
 Рейтинг:   4,7 (Голосов: 46)
 Поблагодарили:   143
 Проверка:   Оформление проверено модератором 13 Авг 2012 14:28:18
Как cкачать  ·  Как раздать  ·  Правильно оформить  ·  Поднять ратио!  
Загрузка...
Zov72
Стаж: 9 лет 8 мес.
Сообщений: 4743
Ratio: 110,504
Поблагодарили: 597780
100%
Откуда: Вольный кабан
wild_hogs.gif
Lelya_K
Сильна, спасибо!!!
:подмигивание:

_________________
Мне чужого не надо….Но свое я заберу, чье бы оно ни было!!!
art-61
Стаж: 8 лет 4 мес.
Сообщений: 1100
Ratio: 137,949
Поблагодарили: 141189
100%
Откуда: Санкт-Петербург
russia.gif
Lelya_K

_________________
В этом безумном мире возможно всё!
plazmo
Стаж: 10 лет
Сообщений: 30
Ratio: 5,717
100%
СПАСИБО!!!!!!!!!!
loxydra
Стаж: 8 лет 3 мес.
Сообщений: 7
Ratio: 0,373
1.89%
Откуда: Уссурийск
russia.gif
Смотрел по TV.
Показать сообщения:   
Начать новую тему   Ответить на тему    Торрент-трекер NNM-Club -> Спорт и активный отдых -> XXX Летние Олимпийские игры. Лондон 2012 Часовой пояс: GMT + 3
Страница 1 из 1