Классический форум-трекер
canvas not supported
Нас вместе: 4 076 659

Стремянка и Макаронина (Сезон 1, серий 13 из 13) / Staflik a Spagetka (1969-1971) DVDRip


 
 
RSS
Начать новую тему   Ответить на тему    Торрент-трекер NNM-Club -> Мультфильмы -> Зарубежные Мультсериалы
Автор Сообщение
gramar_ab ®
Стаж: 7 лет 2 мес.
Сообщений: 17
Ratio: 14,916
Поблагодарили: 1275
100%
Откуда: Красноярск
russia.gif
Стремянка и Макаронина. (Сезон 1, серий 13 из 13) / Staflik a Spagetka (1969-1971) DVDRip
Год выпуска: 1969-1971
Жанр: Детский, Рисованная анимация

Язык: Русский

Описание:
Веселые и динамичные мультики о двух неразлучных друзьях - Стремянки и Макаронине. Неутомимые приятели постоянно затевают веселые и забавные игры, а их соседка - ворона старается помешать им. Но проказы вороны-непоседы не остаются безнаказанными.

Черно-белый.



Альтернативная раздача одним файлом Стремянка и Макаронина (Собачья жизнь)(часть 1) (ч/б) / Jak Staflik a Spagetka (Psí život) (1969-1971) DVDRip

Режиссер: Вацлав Бедрич
Персонажи: Стремянка, Макаронина, Ворона

Продолжительность: 13 x ~00:06:10
Перевод: Без слов / Немой

Видеокодек: Xvid
Битрейт видео: ~996 Kbps
Размер кадра: 720 x 576
Качество видео: DVDRip
Аудиокодек: MP3 stereo
Битрейт аудио: 160 Kbps
Список серий
1. Как Стремянка и Макаронина остались без крыши над головой.
2. Как Стремянка и Макаронина не могли уснуть
3. Как Стремянка и Макаронина начали строить дом.
4. Как Стремянка и Макаронина возводили стены.
5. Как Стремянка и Макаронина загорали.
6. Как Стремянка и Макаронина крыли крышу.
7. Как Стремянка и Макаронина красили.
8. Как Стремянка и Макаронина переезжали.
9. Как Стремянка и Макаронина обставляли дом мебелью.
10. Как Стремянка и Макаронина сажали огород.
11. Как Стремянка и Макаронина варили кашу.
12. Как Стремянка и Макаронина играли.
13. Как Стремянка и Макаронина отправились отдыхать.
General
Complete name : D:\Видео\Мультфильмы\Приключения Стремянки и Макаронины\Сезон 1\sobaki.1.01.bez.kryshi.nad.golovoj.avi
Format : AVI
Format/Info : Audio Video Interleave
File size : 53.7 MiB
Duration : 6mn 26s
Overall bit rate : 1 167 Kbps
Writing application : VirtualDubMod 1.5.10.2 (build 2540/release)
Writing library : VirtualDubMod build 2540/release

Video
ID : 0
Format : MPEG-4 Visual
Format profile : Advanced Simple@L5
Format settings, BVOP : Yes
Format settings, QPel : No
Format settings, GMC : No warppoints
Format settings, Matrix : Default (H.263)
Codec ID : XVID
Codec ID/Hint : XviD
Duration : 6mn 26s
Bit rate : 996 Kbps
Width : 720 pixels
Height : 576 pixels
Display aspect ratio : 5:4
Frame rate : 25.000 fps
Standard : PAL
Color space : YUV
Chroma subsampling : 4:2:0
Bit depth : 8 bits
Scan type : Progressive
Compression mode : Lossy
Bits/(Pixel*Frame) : 0.096
Stream size : 45.8 MiB (85%)
Writing library : DivX 1393

Audio
ID : 1
Format : MPEG Audio
Format version : Version 1
Format profile : Layer 3
Mode : Joint stereo
Codec ID : 55
Codec ID/Hint : MP3
Duration : 6mn 26s
Bit rate mode : Constant
Bit rate : 160 Kbps
Channel(s) : 2 channels
Sampling rate : 48.0 KHz
Compression mode : Lossy
Stream size : 7.36 MiB (14%)
Alignment : Split accross interleaves
Interleave, duration : 40 ms (1.00 video frame)
Interleave, preload duration : 500 ms
Скриншоты:


Время раздачи: С 06:00 до 13:00 московского будни
[NNM-Club.ru]_Stremyanka i Makaronina. Sezon 1.torrent
 Торрент: Платиновая раздача  Зарегистрирован
 
Скачать


Примагнититься
 Зарегистрирован:   15 Авг 2012 06:45:46
 Размер:   700 MB  (
 Рейтинг:   4,8 (Голосов: 42)
 Поблагодарили:   164
 Проверка:   Оформление проверено модератором 16 Авг 2012 07:33:17
Как cкачать  ·  Как раздать  ·  Правильно оформить  ·  Поднять ратио!  
207bones
Стаж: 8 лет 5 мес.
Сообщений: 100
Ratio: 3,444
100%
ussr.gif
Вахмурка с Кржимеликом есть?

_________________
«То, что людьми принято называть судьбою, является, в сущности, лишь совокупностью учиненных ими глупостей» © Шопенгауэр
gramar_ab ®
Стаж: 7 лет 2 мес.
Сообщений: 17
Ratio: 14,916
Поблагодарили: 1275
100%
Откуда: Красноярск
russia.gif
Если надо, то будет :подмигивание:
207bones
Стаж: 8 лет 5 мес.
Сообщений: 100
Ratio: 3,444
100%
ussr.gif
Буду признателен!

_________________
«То, что людьми принято называть судьбою, является, в сущности, лишь совокупностью учиненных ими глупостей» © Шопенгауэр
gramar_ab ®
Стаж: 7 лет 2 мес.
Сообщений: 17
Ratio: 14,916
Поблагодарили: 1275
100%
Откуда: Красноярск
russia.gif
Качайте Сказки лесных человечков: Кржемелик и Вахмурка ( Серий 26 из 26) / Pohadky z mechu a kapradi: Kremilek a Vochomurka (1968-1971) DVDRip =)
stjopa11
Стаж: 9 лет 5 мес.
Сообщений: 124
Ratio: 40,961
100%
gramar_ab писал(а): Перейти к сообщению

..... эта не работает, вот рабочая - Кржемелик и Вахмурка/Kremilek a Vochomurka (Чехия) (1968-1972) DVDRip :D
Показать сообщения:   
Начать новую тему   Ответить на тему    Торрент-трекер NNM-Club -> Мультфильмы -> Зарубежные Мультсериалы Часовой пояс: GMT + 3
Страница 1 из 1