Классический форум-трекер
canvas not supported
Нас вместе: 4 076 425

Стремянка и Макаронина. (Сезон 2, серий 13 из 13) / Staflik a Spagetka (1989-1990) DVDRip


 
 
RSS
Начать новую тему   Ответить на тему    Торрент-трекер NNM-Club -> Мультфильмы -> Зарубежные Мультсериалы
Автор Сообщение
gramar_ab ®
Стаж: 7 лет 2 мес.
Сообщений: 17
Ratio: 14,916
Поблагодарили: 1275
100%
Откуда: Красноярск
russia.gif
Стремянка и Макаронина. (Сезон 2, серий 13 из 13) / Staflik a Spagetka (1989-1990) DVDRip
Год выпуска: 1989-1990
Жанр: Детский, Рисованная анимация

Язык: Русский

Описание:
Описание:
Веселые и динамичные мультики о двух неразлучных друзьях - Стремянке и Макаронине. Неутомимые приятели постоянно затевают веселые и забавные игры, а их соседка - ворона старается помешать им. Но проказы вороны-непоседы не остаются безнаказанными.



Альтернативная раздача одним файлом Приключения Стремянки и Макаронины (часть 2) / Staflik a Spagetka (1989-1990) DVDRip

Режиссер: Вацлав Бедрич
Персонажи: Стремянка, Макаронина, Ворона

Продолжительность: 13 x ~00:07:10
Перевод: Без слов / Немой

Видеокодек: Xvid
Битрейт видео: ~1465 kbps
Размер кадра: 688 x 512
Качество видео: DVDRip
Аудиокодек: AC3 stereo
Битрейт аудио: 256 kbps
Список серий:
1. Правильный тон
2. Сам себе художник
3. Мастера танца
4. Страстный читатель
5. Няньки
6. Искатели воды
7. Рыбаки
8. Шахматы
9. Театр
10. Спортсмены
11. Конструктор
12. Фотографы
13. Наконец-то хороший поступок
General
Complete name : D:\Видео\Мультфильмы\Приключения Стремянки и Макаронины\Сезон 2\sobaki.2.01.pravilnyj.ton.avi
Format : AVI
Format/Info : Audio Video Interleave
File size : 87.1 MiB
Duration : 7mn 1s
Overall bit rate : 1 731 Kbps
Writing application : VirtualDubMod 1.5.10.2 (build 2540/release)
Writing library : VirtualDub build 28312/release

Video
ID : 0
Format : MPEG-4 Visual
Format profile : Advanced Simple@L5
Format settings, BVOP : Yes
Format settings, QPel : No
Format settings, GMC : No warppoints
Format settings, Matrix : Default (H.263)
Muxing mode : Packed bitstream
Codec ID : XVID
Codec ID/Hint : XviD
Duration : 7mn 1s
Bit rate : 1 465 Kbps
Width : 688 pixels
Height : 512 pixels
Display aspect ratio : 4:3
Frame rate : 25.000 fps
Color space : YUV
Chroma subsampling : 4:2:0
Bit depth : 8 bits
Scan type : Progressive
Compression mode : Lossy
Bits/(Pixel*Frame) : 0.166
Stream size : 73.7 MiB (85%)
Writing library : XviD 1.1.0 (UTC 2005-11-22)

Audio
ID : 1
Format : AC-3
Format/Info : Audio Coding 3
Mode extension : CM (complete main)
Codec ID : 2000
Duration : 7mn 1s
Bit rate mode : Constant
Bit rate : 256 Kbps
Channel(s) : 2 channels
Channel positions : Front: L R
Sampling rate : 48.0 KHz
Bit depth : 16 bits
Compression mode : Lossy
Stream size : 12.9 MiB (15%)
Alignment : Split accross interleaves
Interleave, duration : 40 ms (1.00 video frame)
Interleave, preload duration : 500 ms
Скриншоты:


Время раздачи: С 06:00 до 13:00 московского будни
[NNM-Club.ru]_Stremyanka i Makaronina. Sezon 2.torrent
 Торрент: Платиновая раздача  Зарегистрирован
 
Скачать


Примагнититься
 Зарегистрирован:   15 Авг 2012 08:48:40
 Размер:   1,37 GB  (
 Рейтинг:   4,9 (Голосов: 34)
 Поблагодарили:   161
 Проверка:   Оформление проверено модератором 16 Авг 2012 07:36:18
Как cкачать  ·  Как раздать  ·  Правильно оформить  ·  Поднять ратио!  
Показать сообщения:   
Начать новую тему   Ответить на тему    Торрент-трекер NNM-Club -> Мультфильмы -> Зарубежные Мультсериалы Часовой пояс: GMT + 3
Страница 1 из 1