Классический форум-трекер
canvas not supported
Нас вместе: 4 093 701

Олимпийская деревня (2010) DVBRip [H.264]


 
 
RSS
Начать новую тему   Ответить на тему    Торрент-трекер NNM-Club -> Отечественное кино -> Отечественные Фильмы (HD*Rip/LQ, DVDRip, SATRip, VHSRip)
Автор Сообщение
denver7979 ®
Зам. Куратора Детского.
Модератор Видео.
RG Всё лучшее - детям!
 
Стаж: 9 лет 2 мес.
Сообщений: 8122
Ratio: 551,071
Раздал: 37,77 TB
Поблагодарили: 327277
100%
Откуда: Земля
ussr.gif
Олимпийская деревня (2010) DVBRip [H.264]
Русское название: Олимпийская деревня
Год выпуска: 2010
Выпущено: "Амигос-фильм"
Жанр: Комедия

Режиссер: Александр Сухарев
Актеры: Сергей Колешня, Анастасия Городенцева, Михаил Ефремов, Валерий Гаркалин, Денис Никифоров, Виктор Бычков, Алексей Булдаков, Геннадий Хазанов, Инга Оболдина

Сценарий: Степан Григорьев, Александр Сухарев
Продюсер: Сергей Халков, Аркадий Телелясов, Вадим Елизаров, ...
Оператор: Олег Иванов
Композитор: Анатолий Торжинский, Роман Дормидошин
Художник: Константин Витавский
Монтаж: Ираклий Квирикадзе, Христо Тодо

Описание фильма:
Москва. Август 1980-го года. Власти СССР готовят Москву к приезду олимпийских гостей. В связи с компанией по "очищению" Москвы, неблагонадежных граждан, инакомыслящих и диссидентов на время олимпиады отправляют за 101-й километр в дачные поселки и санатории. В их числе - инфантильный виолончелист Арсений Чайка, который победив на конкурсе им. Чайковского, привлек к себе излишнее внимание иностранной музыкальной прессы и теперь находится под пристальным вниманием соответствующих органов. С виолончелью за спиной и с единственным другом - кроликом на руках, Арсений отправляется в "ссылку"...



Автор рипа: olegek70

Продолжительность: 01:19:16
Качество видео: DVBRip

Конте6йнер: MKV
Видео: AVC, 1024x576 (16:9), 25.000 fps, 2 342 Kbps (0.159 bit/pixel)
Аудио: MP3, 48.0 KHz, 2 ch, 121 Kbps, VBR
Код: выделить все
Видео
Идентификатор                            : 1
Формат                                   : AVC
Формат/Информация                        : Advanced Video Codec
Профиль формата                          : High@L4.1
Параметр CABAC формата                   : Да
Параметр ReFrames формата                : 6 кадров
Идентификатор кодека                     : V_MPEG4/ISO/AVC
Продолжительность                        : 1 ч. 19 м.
Битрейт                                  : 2342 Кбит/сек
Ширина                                   : 1024 пикселя
Высота                                   : 576 пикселей
Соотношение сторон                       : 16:9
Режим частоты кадров                     : Постоянный
Частота кадров                           : 25,000 кадров/сек
Цветовое пространство                    : YUV
Субдискретизация насыщенности            : 4:2:0
Битовая глубина                          : 8 бит
Тип развёртки                            : Прогрессивная
Бит/(Пиксели*Кадры)                      : 0.159
Размер потока                            : 1,27 Гбайт (93%)
Библиотека кодирования                   : x264 core 115 r1937 aa21558
Настройки программы                      : cabac=1 / ref=6 / deblock=1:-2:-2 / analyse=0x3:0x113 / me=umh / subme=6 / psy=1 / psy_rd=1.00:0.10 / mixed_ref=0 / me_range=32 / chroma_me=1 / trellis=2 / 8x8dct=1 / cqm=0 / deadzone=21,11 / fast_pskip=1 / chroma_qp_offset=-3 / threads=6 / sliced_threads=0 / nr=0 / decimate=1 / interlaced=0 / bluray_compat=0 / constrained_intra=0 / bframes=6 / b_pyramid=2 / b_adapt=2 / b_bias=0 / direct=3 / weightb=1 / open_gop=0 / weightp=0 / keyint=250 / keyint_min=25 / scenecut=40 / intra_refresh=0 / rc_lookahead=30 / rc=2pass / mbtree=1 / bitrate=2342 / ratetol=1.0 / qcomp=0.60 / qpmin=15 / qpmax=47 / qpstep=3 / cplxblur=20.0 / qblur=0.5 / ip_ratio=1.40 / aq=1:1.10
Default                                  : Да
Forced                                   : Нет

Аудио
Идентификатор                            : 2
Формат                                   : MPEG Audio
Версия формата                           : Version 1
Профиль формата                          : Layer 3
Идентификатор кодека                     : A_MPEG/L3
Идентификатор кодека/Подсказка           : MP3
Продолжительность                        : 1 ч. 19 м.
Вид битрейта                             : Переменный
Битрейт                                  : 121 Кбит/сек
Номинальный битрейт                      : 128 Кбит/сек
Каналы                                   : 2 канала
Частота                                  : 48,0 КГц
Метод сжатия                             : С потерями
Размер потока                            : 68,2 Мбайт (5%)
Библиотека кодирования                   : LAME3.98r
Настройки программы                      : -m s -V 4 -q 2 -lowpass 17 --abr 128
Default                                  : Да
Forced                                   : Нет
Скриншоты:


Олимпийская деревня на NNM-club

Время раздачи: с 11:00 до 01:00
[NNM-Club.ru]_Olimpiyskaja.derevnja.2010.x264.DVB_olegek70.mkv.torrent
 Торрент: Платиновая раздача  Зарегистрирован
 
Скачать


Примагнититься
 Зарегистрирован:   17 Авг 2012 22:12:18
 Размер:   1,36 GB  (
 Рейтинг:   4,6 (Голосов: 43)
 Поблагодарили:   232
 Проверка:   Оформление проверено модератором 17 Авг 2012 22:12:41
Как cкачать  ·  Как раздать  ·  Правильно оформить  ·  Поднять ратио!  
max2008a
Стаж: 10 лет 6 мес.
Сообщений: 1752
Ratio: 4,243
Поблагодарили: 882
100%
Спасибо, посмотреть по телику не успел, зато сейчас благодаря вам я смогу это сделать :)
Gurkin56
Стаж: 9 лет 8 мес.
Сообщений: 2657
Ratio: 0,905
Поблагодарили: 183805
100%
Откуда: Wonderland
Про одного наивного и талантливого еврейского юношу и кучу русских пропойц и дураков. Ни одного русского нормального, включая председателя колхоза и мамашу главной героини...
Ramiraz
Стаж: 9 лет 11 мес.
Сообщений: 51
Ratio: 5,731
100%
Откуда: Севастополь
russia.gif
Gurkin56 писал(а): Перейти к сообщению
Про одного наивного и талантливого еврейского юношу и кучу русских пропойц и дураков. Ни одного русского нормального, включая председателя колхоза и мамашу главной героини...

Понял, спасибо.

_________________
Трезвей! Товарищ.
Показать сообщения:   
Начать новую тему   Ответить на тему    Торрент-трекер NNM-Club -> Отечественное кино -> Отечественные Фильмы (HD*Rip/LQ, DVDRip, SATRip, VHSRip) Часовой пояс: GMT + 3
Страница 1 из 1