Классический форум-трекер
canvas not supported
Нас вместе: 4 093 122

Испытание верностью [1-4 серия из 4] (2012) SATRip


 
 
RSS
Начать новую тему   Ответить на тему    Торрент-трекер NNM-Club -> Архив торрентов -> Архив Сериалов, а также Архив Старого многосерийного кино до 90-х
Автор Сообщение
ZoNoW ®
Модератор Видео
Стаж: 8 лет 9 мес.
Сообщений: 7367
Ratio: 675K
Раздал: 81,1 TB
Поблагодарили: 3398588
100%
ussr.gif
Испытание верностью [1-4 серия из 4] (2012) SATRip
Русское название: Испытание верностью
Год выпуска: 2012
Производство: Россия, Продюсерская компания "Медиапрофсоюз"
Жанр: Мелодрама

Дата российской премьеры: 18 августа 2012 (Россия-1)



Режиссер: Петр Кротенко
Актеры: Елена Дробышева, Сергей Кошонин, Мария Антипова, Владимир Шумков, Светлана Зеленковская, Дмитрий Абазовик, Елена Стеценко, Татьяна Гаркуша, Галина Кухальская, Любовь Румянцева, Андрей Карако, Ингрид Павлинова, Игорь Сигов, Виктор Васильев

Описание фильма:
Алевтина – прекрасная хозяйка, замечательная жена и мать, чуткая дочь. Ее дом – полная чаща. Оставив 20 лет назад карьеру ради любимого мужа Севы и став домохозяйкой, Аля не может остановиться и приносит все новые жертвы на алтарь семьи, посвящая дому всю себя без остатка. Теперь ее главная цель – сын Саша. Его нужно выучить, «поставить на ноги» и женить. Но вот беда: за котлетами, стиркой и уборкой Аля разучилась слышать своих близких, понимать их внутренний мир.
Так продолжается из года в год, пока однажды Сева не уходит к другой женщине – яркой и стильной Ксении. Новая пассия Севы не только сногсшибательно выглядит (в отличие от Али, превратившейся от добровольного домашнего рабства в «серую мышку»), но и искренне интересуется делами своего возлюбленного.
Счастье Али, столь ревностно хранимое ею, разбито. Она остается без денег, без работы, без связей. Словно испытывая героиню на прочность, судьба наносит ей еще один страшный удар – умирает мама…
Алевтине предстоит нешуточная борьба за личное счастье. Сумеет ли она в свои «сорок с хвостиком» изменить себя и снова объединить разрушенную семью?

Продолжительность: 00:45:00 серия
Качество видео: SATRip

Видеокодек: DivX 5
Битрейт видео: 1499 kbps
Размер кадра: 704x400
Аудиокодек: MP3, 2 ch
Битрейт аудио: 128 kbps
Внимание! Раздача ведётся путём добавления новых серий
Внимание! Раздача ведётся путём добавления новых серий; при каждом добавлении создётся новый торрент. Чтобы начать докачку новой серии, пользователям необходимо сделать следующее:
(1) остановить скачивание,
(2) удалить старый торрент у себя из клиента (старые серии удалять не надо),
(3) скачать новый торрент и запустить его у себя в клиенте вместо старого, при этом указать клиенту путь в старую папку куда и должно происходить скачивание новых серий.
Ваш клиент при этом должен произвести хеширование (проверку) старой папки (если не производит сам - помогите ему сделать это), и будет докачивать только те серии которых у вас ещё нет. Старые серии при этом не удаляются, а продолжают раздаваться!
Eсли вы уже удалили старые серии, то предотвратить повторную закачку старых серий можно, отжав галочку в соответсвующих местах при запуске нового торрента. По возможности, желательно не удалять старые серии как можно дольше чтобы релизёр не столько продолжал раздавать старые серии, а смог сконцентрироваться на новых
Код:
Общее
Полное имя                       : D:\НЕ УДАЛЯТЬ!!!\Ispytanie.vernostju.2012.SATRip\Ispytanie.vernostju.01.2012.SATRip.avi
Формат                           : AVI
Формат/Информация                : Audio Video Interleave
Размер файла                     : 438 Мбайт
Продолжительность                : 37 м.
Общий поток                      : 1640 Кбит/сек
Библиотека кодирования           : Boilsoft AVI tool build 1/release

Видео
Идентификатор                    : 0
Формат                           : MPEG-4 Visual
Профиль формата                  : Simple@L3
Параметр BVOP формата            : Нет
Параметр QPel формата            : Нет
Параметр GMC формата             : Без точки перехода
Параметр матрицы формата         : Default (H.263)
Идентификатор кодека             : DX50
Идентификатор кодека/Подсказка   : DivX 5
Продолжительность                : 37 м.
Битрейт                          : 1499 Кбит/сек
Ширина                           : 704 пикселя
Высота                           : 400 пикселей
Соотношение сторон               : 16:9
Частота кадров                   : 25,000 кадров/сек
Цветовое пространство            : YUV
Субдискретизация насыщенности    : 4:2:0
Битовая глубина                  : 8 бит
Тип развёртки                    : Прогрессивная
Метод сжатия                     : С потерями
Бит/(Пиксели*Кадры)              : 0.213
Размер потока                    : 401 Мбайт (91%)
Библиотека кодирования           : XviD 1.2.1 (UTC 2008-12-04)

Аудио
Идентификатор                    : 1
Формат                           : MPEG Audio
Версия формата                   : Version 1
Профиль формата                  : Layer 3
Режим                            : Joint stereo
Расширение режима                : MS Stereo
Идентификатор кодека             : 55
Идентификатор кодека/Подсказка   : MP3
Продолжительность                : 37 м.
Вид битрейта                     : Постоянный
Битрейт                          : 128 Кбит/сек
Каналы                           : 2 канала
Частота                          : 48,0 КГц
Метод сжатия                     : С потерями
Размер потока                    : 34,2 Мбайт (8%)
Выравнивание                     : Соединение по промежуткам
Продолжительность промежутка     : 24  мс. (0,60 видеокадр)
Время предзагрузки промежутка    : 504  мс.
Библиотека кодирования           : LAME3.98.2


Скриншоты:


Приятного просмотра
и не забываем говорить СПАСИБО...

Время раздачи: 24/7,
до 5 скачавших.
[NNM-Club.ru]_Ispytanie.vernostju.2012.SATRip.torrent
 Торрент: Платиновая раздача  Зарегистрирован
 
Скачать


 Зарегистрирован:   18 Авг 2012 16:03:04
 Размер:   1,99 GB  (
 Рейтинг:   4,7 (Голосов: 36)
 Поблагодарили:   208
 Проверка:   Оформление проверено модератором 18 Авг 2012 16:07:00
Как cкачать  ·  Как раздать  ·  Правильно оформить  ·  Поднять ратио!  

_________________
Правила оформления релизов в разделе «Видео» | Исправил релиз? - напиши об этом в ЛС
felikc1948
Стаж: 8 лет 11 мес.
Сообщений: 252
Ratio: 5,73
100%
Откуда: г.Челябинск
russia.gif
Спасибо большое за сериал !!!
attaha
Стаж: 10 лет 2 мес.
Сообщений: 205
Ratio: 3,041
100%
Откуда: Irbene
latvia.gif
Жанр, все-таки больше комедия нежели мылодрама , две серии непринужденного смеха и стресс-тест моим легким , спасибо раздающему и незамысловатой режиссуре.
Топик был перенесен из форума Отечественные сериалы в форум Архив Сериалов

Причина переноса: раздающего не было 3 месяца.

Исправил релиз - напиши ЛС DriverV, дав ссылку на релиз.
Если нет ответа 24 часа - нажми на кнопку "Обратить внимание модераторов".
Показать сообщения:   
Начать новую тему   Ответить на тему    Торрент-трекер NNM-Club -> Архив торрентов -> Архив Сериалов, а также Архив Старого многосерийного кино до 90-х Часовой пояс: GMT + 3
Страница 1 из 1