Классический форум-трекер
canvas not supported
Нас вместе: 4 076 907

Приключения Лотты из Самоделкино / Leiutajatekula Lotte (2006) DVD5


 
 
RSS
Начать новую тему   Ответить на тему    Торрент-трекер NNM-Club -> Мультфильмы -> Зарубежные Мультфильмы для детей
Автор Сообщение
denver7979 ®
Зам. Куратора Детского.
Модератор Видео.
RG Всё лучшее - детям!
 
Стаж: 8 лет 8 мес.
Сообщений: 7568
Ratio: 491,242
Раздал: 33,9 TB
Поблагодарили: 308709
100%
Откуда: Земля
ussr.gif
Приключения Лотты из Самоделкино / Leiutajatekula Lotte (2006) DVD5
Русское название: Приключения Лотты из Самоделкино
Оригинальное название: Leiutajatekula Lotte
Страна: Эстония, Латвия
Год выпуска: 2006
Жанр: Детский

Язык: Русский, Украинский
Перевод: Дублированный

Дата мировой премьеры: 23 мая 2006

Режиссер: Хейки Эрниц, Янно Пылдмаа
Сценарий: Янно Пылдмаа, Хейки Эрниц, Андрус Кивиряхк
Продюссер: Рийна Сильдос, Калев Тамм, Vilnis Kalnaellis
Композитор: Свен Грюнберг
Художник: Хейки Эрниц
Монтаж: Янно Пылдмаа

Роли озвучивали: Ани Лорак и Гарик Сукачёв


Описание фильма:
Создатели мультфильма приглашают вас в деревню изобретателей Самоделкино. Здесь живут маленькая собачка Лотта и ее веселые друзья. Если захотите, то сможете подружиться с ними и отправиться в чудесное путешествие далеко, далеко, на самый край света. Вас ждут самые, пресамые интересные и волшебные приключения! А чтобы не спрашивать разрешения у мамы и папы просто возьмите их с собой...



Продолжительность: 01:21:00
Качество видео: DVD5

Видео: MPEG2, 8000 Кбит/сек, PAL 16:9 (720x576) VBR
Аудио: Русский (Dolby AC3, 6 ch, 448 Кбит/сек), Украинский (Dolby AC3, 6 ch, 448 Кбит/сек)
Видео
Идентификатор : 224 (0xE0)
Формат : MPEG Video
Версия формата : Version 2
Профиль формата : Main@Main
Параметр BVOP формата : Да
Параметр матрицы формата : По умолчанию
Продолжительность : 20 м.
Вид битрейта : Переменный
Битрейт : 5975 Кбит/сек
Максимальный битрейт : 8000 Кбит/сек
Ширина : 720 пикселей
Высота : 576 пикселей
Соотношение сторон : 16:9
Частота кадров : 25,000 кадров/сек
Стандарт вещания : PAL
Цветовое пространство : YUV
Субдискретизация насыщенности : 4:2:0
Битовая глубина : 8 бит
Тип развёртки : Чересстрочная
Порядок развёртки : Верхнее поле первое
Метод сжатия : С потерями
Бит/(Пиксели*Кадры) : 0.576
Размер потока : 873 Мбайт (85%)

Аудио #1
Идентификатор : 189 (0xBD)-128 (0x80)
Формат : AC-3
Формат/Информация : Audio Coding 3
Расширение режима : CM (complete main)
Параметр Endianness формата : Big
Режим смешивания : DVD-Video
Продолжительность : 20 м.
Вид битрейта : Постоянный
Битрейт : 448 Кбит/сек
Каналы : 6 каналов
Расположение каналов : Front: L C R, Side: L R, LFE
Частота : 48,0 КГц
Битовая глубина : 16 бит
Метод сжатия : С потерями
Задержка видео : -456 мс.
Размер потока : 65,4 Мбайт (6%)

Аудио #2
Идентификатор : 189 (0xBD)-129 (0x81)
Формат : AC-3
Формат/Информация : Audio Coding 3
Расширение режима : CM (complete main)
Параметр Endianness формата : Big
Режим смешивания : DVD-Video
Продолжительность : 20 м.
Вид битрейта : Постоянный
Битрейт : 448 Кбит/сек
Каналы : 6 каналов
Расположение каналов : Front: L C R, Side: L R, LFE
Частота : 48,0 КГц
Битовая глубина : 16 бит
Метод сжатия : С потерями
Задержка видео : -456 мс.
Размер потока : 65,4 Мбайт (6%)

Меню
Скриншоты:



Приключения Лотты из Самоделкино на NNM-club

Время раздачи: ~ c 11:00 до 01:00
Priklyucheniya Lottyi iz Samodelkino_[NNM-club].torrent
 Торрент: Платиновая раздача  Зарегистрирован
 
Скачать


 Зарегистрирован:   18 Ноя 2013 17:11:46
 Размер:   4,34 GB  (
 Рейтинг:   4,7 (Голосов: 21)
 Поблагодарили:   54
 Проверка:   Оформление проверено модератором 18 Ноя 2013 17:12:04
Как cкачать  ·  Как раздать  ·  Правильно оформить  ·  Поднять ратио!  

_________________
§ Основной FAQ & Все ПравилаНабор в RG NNM-Club Всё для детей, пап и мам
* Все вопросы в ☛ ЛС по вашим релизам ☣
обязательно со ссылками на темы, о которых идёт речь ☺
puppetman
Стаж: 6 лет 6 мес.
Сообщений: 46
Ratio: 209,703
100%
finland.gif
ау! встаньте кто-нибудь на раздачу!
Показать сообщения:   
Начать новую тему   Ответить на тему    Торрент-трекер NNM-Club -> Мультфильмы -> Зарубежные Мультфильмы для детей Часовой пояс: GMT + 3
Страница 1 из 1