Классический форум-трекер
canvas not supported
Нас вместе: 4 079 482

PBS Nature: Калахари [2 серии] / Kalahari (2003) HDTVRip


 
 
RSS
Начать новую тему   Ответить на тему    Торрент-трекер NNM-Club -> Зарубежные TV-бренды -> PBS
Автор Сообщение
skorpionN ®
Ведущий Документалист
Стаж: 12 лет 3 мес.
Сообщений: 9514
Ratio: 2629,145
Раздал: 22,35 TB
Поблагодарили: 362983
100%
PBS Nature: Калахари [2 серии] / Kalahari (2003) HDTVRip
Релиз группа: RG NNM-Club DocTV
Автор Rip'а: skorpionN

Огромное спасибо за материал MegaKvazaR

Русское название: PBS Nature: Калахари [2 серии]
Оригинальное название: Kalahari
Режиссер / Телекомпания: PSB Nature
Год выпуска: 2003
Жанр: Документальный

Описание:
Потрясающие виды под красивую музыку и приятный голос рассказчика.
01. Земля великой жажды / The Great Thirstland
20 лет назад река Ботети перестала приносить достаточно воды в пустыню Калахари. Теперь эта местность состоит из пыли, скудной растительности и песка, а живая природа прячется от безжалостного летнего солнца и холода зимних ночей.
02. Затопленная пустыня / The Flooded Desert
Там, где по иссохшему от зноя сердцу пустыни Калахари протекает великая африканская река, лежит Земля необычайной Красоты - Дельта Акаванго. Ежегодно река проносит свои воды через тысячи квадратных километров песка, оживляя пустыню. Захватывающие дух пейзажи таят в себе скрытые угрозы и служат домом редким животным. Небо оглашается криками орлов, а воды реки кишат разнообразнейшими формами жизни. Нигде больше нет такой экосистемы, с ней ничто не сравнится...

Продолжительность: 2 x ~00:52:30

Перевод: Одноголосый закадровый, профессиональный

Видеокодек: Xvid
Битрейт видео: ~29.97fps 1800kbps
Размер кадра: 720x400
Качество видео: HDTVRip
Аудиокодек: AC3
Битрейт аудио: 48000Hz stereo 192kbps

Доп. информация: Русская озвучка была взята из ТВ-рипа и адаптирована для данной версии фильма
Формат : AVI
Формат/Информация : Audio Video Interleave
Размер файла : 753 Мбайт
Продолжительность : 52 м.
Общий поток : 2003 Кбит/сек
Программа кодирования : VirtualDubMod 1.5.10.3 | www.virtualdub-fr.org || (build 2550/release)
Библиотека кодирования : VirtualDubMod build 2550/release

Видео
Идентификатор : 0
Формат : MPEG-4 Visual
Профиль формата : Advanced Simple@L5
Параметр BVOP формата : 2
Параметр QPel формата : Нет
Параметр GMC формата : Без точки перехода
Параметр матрицы формата : Default (H.263)
Идентификатор кодека : XVID
Идентификатор кодека/Подсказка : XviD
Продолжительность : 52 м.
Битрейт : 1799 Кбит/сек
Ширина : 720 пикселей
Высота : 400 пикселей
Соотношение сторон : 16:9
Частота кадров : 29,970 кадров/сек
Цветовое пространство : YUV
Субдискретизация насыщенности : 4:2:0
Битовая глубина : 8 бит
Тип развёртки : Прогрессивная
Метод сжатия : С потерями
Бит/(Пиксели*Кадры) : 0.208
Размер потока : 676 Мбайт (90%)
Библиотека кодирования : XviD 1.2.1 (UTC 2008-12-04)

Аудио
Идентификатор : 1
Формат : AC-3
Формат/Информация : Audio Coding 3
Расширение режима : CM (complete main)
Параметр Endianness формата : Big
Идентификатор кодека : 2000
Продолжительность : 52 м.
Вид битрейта : Постоянный
Битрейт : 192 Кбит/сек
Каналы : 2 канала
Расположение каналов : Front: L R
Частота : 48,0 КГц
Битовая глубина : 16 бит
Метод сжатия : С потерями
Размер потока : 72,2 Мбайт (10%)
Выравнивание : Разделение по промежуткам
Продолжительность промежутка : 33 мс. (1,00 видеокадр)
Время предзагрузки промежутка : 500 мс.

Общее
Полное имя : D:\Zagruzka\Kalahari\02_PBS_Kalahari_The_Flooded_Desert.avi
Формат : AVI
Формат/Информация : Audio Video Interleave
Размер файла : 752 Мбайт
Продолжительность : 52 м.
Общий поток : 2001 Кбит/сек
Программа кодирования : VirtualDubMod 1.5.10.3 | www.virtualdub-fr.org || (build 2550/release)
Библиотека кодирования : VirtualDubMod build 2550/release

Видео
Идентификатор : 0
Формат : MPEG-4 Visual
Профиль формата : Advanced Simple@L5
Параметр BVOP формата : 2
Параметр QPel формата : Нет
Параметр GMC формата : Без точки перехода
Параметр матрицы формата : Default (H.263)
Идентификатор кодека : XVID
Идентификатор кодека/Подсказка : XviD
Продолжительность : 52 м.
Битрейт : 1800 Кбит/сек
Ширина : 720 пикселей
Высота : 400 пикселей
Соотношение сторон : 16:9
Частота кадров : 23,976 кадра/сек
Цветовое пространство : YUV
Субдискретизация насыщенности : 4:2:0
Битовая глубина : 8 бит
Тип развёртки : Прогрессивная
Метод сжатия : С потерями
Бит/(Пиксели*Кадры) : 0.261
Размер потока : 676 Мбайт (90%)
Библиотека кодирования : XviD 1.2.1 (UTC 2008-12-04)

Аудио
Идентификатор : 1
Формат : AC-3
Формат/Информация : Audio Coding 3
Расширение режима : CM (complete main)
Параметр Endianness формата : Big
Идентификатор кодека : 2000
Продолжительность : 52 м.
Вид битрейта : Постоянный
Битрейт : 192 Кбит/сек
Каналы : 2 канала
Расположение каналов : Front: L R
Частота : 48,0 КГц
Битовая глубина : 16 бит
Метод сжатия : С потерями
Размер потока : 72,1 Мбайт (10%)
Выравнивание : Разделение по промежуткам
Продолжительность промежутка : 42 мс. (1,00 видеокадр)
Время предзагрузки промежутка : 500 мс.
Скриншоты:






Время раздачи: 24/7 ( до первых скачавших, перебои со связью бывают,зависит от провайдера)
[NNM-Club.ru]_Kalahari.torrent
 Торрент: Платиновая раздача  Зарегистрирован
 
Скачать


Примагнититься
 Зарегистрирован:   26 Авг 2012 19:54:48
 Размер:   1,47 GB  (
 Рейтинг:   4,9 (Голосов: 23)
 Поблагодарили:   77
 Проверка:   Оформление проверено модератором 26 Авг 2012 19:55:26
Как cкачать  ·  Как раздать  ·  Правильно оформить  ·  Поднять ратио!  
skorpionN ®
Ведущий Документалист
Стаж: 12 лет 3 мес.
Сообщений: 9514
Ratio: 2629,145
Раздал: 22,35 TB
Поблагодарили: 362983
100%
Потрясающий филь. Больше года не доходили руки до оформления.
mat1us
Стаж: 10 лет 8 мес.
Сообщений: 104
Ratio: 7,026
Поблагодарили: 867
100%
ukraine.gif
У PBS Nature всегда отличные фильмы. Спасибо автору.
svelvit1981
Стаж: 8 лет 7 мес.
Сообщений: 71
Ratio: 0,949
Поблагодарили: 74
100%
ukraine.gif
Спасибо за прекрасный фильм!
Показать сообщения:   
Начать новую тему   Ответить на тему    Торрент-трекер NNM-Club -> Зарубежные TV-бренды -> PBS Часовой пояс: GMT + 3
Страница 1 из 1