Классический форум-трекер
canvas not supported
Нас вместе: 4 079 059

Мадемуазель Нитуш / Mam'zelle Nitouche (1954) DVDRip


 
 
RSS
Начать новую тему   Ответить на тему    Торрент-трекер NNM-Club -> Архив торрентов -> Архив Музыкального Видео
Автор Сообщение
nnmclub0112 ®
Стаж: 7 лет 9 мес.
Сообщений: 3894
Ratio: 96,827
Поблагодарили: 249659
100%
Мадемуазель Нитуш / Mam'zelle Nitouche (1954) DVDRip
Русское название: Мадемуазель Нитуш
Оригинальное название: Mam'zelle Nitouche
Год выпуска: 1954
Жанр: Комедия, Мюзикл

Описание фильма:
Серьезный и скромный господин Селеcтен - органист в монастырском приюте для девочек. Он дает уроки музыки и служит примером хороших манер. Почтительность и преданность делу господина Селеcтена вызывают у монахинь безграничное доверие и уважение. Однако у чопорного преподавателя есть своя большая «маленькая тайна».
По вечерам зануда Селеcтен превращается в озорного мсье Флоридора - сердцееда, проказника и сочинителя веселых оперетт. Юные барышни узнают о двойной жизни сурового наставника, и очаровательная Дениза страстно влюбленная в музыку Флоридора, вынуждает своего преподавателя приобщить ее к волшебному миру искусства.
Вот только - смогут ли наставницы-монахини примириться с мыслью о том, что лучшая воспитанница «пансионата для благородных девиц» станет актрисой?..

Режиссер: Ив Аллегре
Актеры: Пьер Анджели, Оливье Юссено, Бернар Ла Жарриж, Кэтерин Кэт, Gaston Orbal, Фернан Рене, Клодетт Дональд, Луи де Фюнес, Андре Роанн, Жан Дебюкур, Марго Лион, Нерио Бернарди, Жорж Шамара, Даниэль Секкальди, Макс Эллуа, Паула Борбони, Фернандель, Пьер Олаф, Франсуа Герин, Хелен Тосси

Продолжительность: 01:27:51
Перевод: Многоголосый закадровый



Видеокодек: Xvid
Битрейт видео: ~1579 Кбит/сек
Размер кадра: 704x480
Качество видео: DVDRip
Аудиокодек: AC3 2.0
Битрейт аудио: 192 Кбит/сек
Общее
Полное имя : K:\Фильм\Французские актеры\Фернандель\Мадемуазель Нитуш\Mademuazel.Nitush.1954.DVDRip.avi
Формат : AVI
Формат/Информация : Audio Video Interleave
Размер файла : 1,09 Гбайт
Продолжительность : 1 ч. 27 м.
Общий поток : 1780 Кбит/сек
Программа кодирования : VirtualDubModRus 1.5.10.2 (build 2542/release)
Библиотека кодирования : VirtualDubMod build 2542/release

Видео
Идентификатор : 0
Формат : MPEG-4 Visual
Профиль формата : Advanced Simple@L5
Параметр BVOP формата : 2
Параметр QPel формата : Нет
Параметр GMC формата : Без точки перехода
Параметр матрицы формата : Default (MPEG)
Режим смешивания : Сжатый битовый поток
Идентификатор кодека : XVID
Идентификатор кодека/Подсказка : XviD
Продолжительность : 1 ч. 27 м.
Битрейт : 1579 Кбит/сек
Ширина : 704 пикселя
Высота : 480 пикселей
Соотношение сторон : 3:2
Частота кадров : 25,000 кадров/сек
Стандарт вещания : NTSC
Цветовое пространство : YUV
Субдискретизация насыщенности : 4:2:0
Битовая глубина : 8 бит
Тип развёртки : Прогрессивная
Метод сжатия : С потерями
Бит/(Пиксели*Кадры) : 0.187
Размер потока : 992 Мбайт (89%)
Библиотека кодирования : XviD 1.0.3 (UTC 2004-12-20)

Аудио
Идентификатор : 1
Формат : AC-3
Формат/Информация : Audio Coding 3
Расширение режима : CM (complete main)
Параметр Endianness формата : Big
Идентификатор кодека : 2000
Продолжительность : 1 ч. 27 м.
Вид битрейта : Постоянный
Битрейт : 192 Кбит/сек
Каналы : 2 канала
Расположение каналов : Front: L R
Частота : 32,0 КГц
Битовая глубина : 16 бит
Метод сжатия : С потерями
Задержка видео : 1 с. 248 мс.
Размер потока : 121 Мбайт (11%)
Выравнивание : Разделение по промежуткам
Продолжительность промежутка : 48 мс. (1,20 видеокадр)
Время предзагрузки промежутка : 528 мс.
Скриншоты:



Время раздачи: С 9:00 до 23:00
[NNM-Club.ru]_Mademuazel.Nitush.1954.DVDRip.avi.torrent
 Торрент: Платиновая раздача  Зарегистрирован
 
Скачать


 Зарегистрирован:   29 Авг 2012 20:15:25
 Размер:   1,09 GB  (
 Рейтинг:   4,9 (Голосов: 19)
 Поблагодарили:   72
 Проверка:   Оформление проверено модератором 04 Сен 2012 08:35:31
Как cкачать  ·  Как раздать  ·  Правильно оформить  ·  Поднять ратио!  
Топик был перенесен из форума Опера, Балет, Мюзиклы в форум Архив Музыкального Видео

Причина переноса: Отсутствие сидов более трех месяцев.

Исправил релиз - напиши ЛС ALLic, дав ссылку на релиз.
Если нет ответа 24 часа - нажми на кнопку "Обратить внимание модераторов".
Показать сообщения:   
Начать новую тему   Ответить на тему    Торрент-трекер NNM-Club -> Архив торрентов -> Архив Музыкального Видео Часовой пояс: GMT + 3
Страница 1 из 1