Классический форум-трекер
canvas not supported
Нас вместе: 4 114 182

Чужая земля (На дальней орбите) / Outland (1981) BDRip


 
 
RSS
Начать новую тему   Ответить на тему    Торрент-трекер NNM-Club -> Классика кино и Старые фильмы до 90-х -> Старые Зарубежные Фильмы (HD*Rip/LQ, DVDRip, SATRip, VHSRip)
Автор Сообщение
Rulya74 ®
Феникс
Стаж: 10 лет 7 мес.
Сообщений: 1123
Ratio: 305,103
Раздал: 59,64 TB
Поблагодарили: 132747
100%
ukraine.gif
Чужая земля / Outland (1981) BDRip
Жанр: Фантастика, Боевик, Триллер

Режиссер: Питер Хайамс
Актеры: Шон Коннери, Питер Бойл, Фрэнсис Стернхаген, Джеймс Сиккинг, Кика Маркам, Кларк Питерс, Стивен Беркофф, Джон Ратценбергер, Николас Барнс, Мэннинг Редвуд

Описание фильма:
Самый удаленный спутник Юпитера. Огромная глыба вулканического хаоса. На его поверхности возвышается горнодобывающая колония, начиненная самой современной техникой. Население колонии состоит из людей, бежавших от цивилизации, и неудачников, которые бродили когда-то по пыльным улочкам какого-нибудь Сити.
Здесь даже воздух пропитан насилием. На эту землю завтрашнего дня и прибывает герой Шона Коннери.

Продолжительность: 01:49:18
Перевод: Дублированный, двухголосый закадровый

Дата мировой премьеры: 22 мая 1981

Видеокодек: Xvid
Битрейт видео: ~1364 kbps
Размер кадра: 720x304
Качество видео: BDRip
Аудио#1: 48 kHz, AC3, 2/0 (L,R) ch, 192.00 kbps (Дубляж)
Аудио#2: 48 kHz, AC3, 2/0 (L,R) ch, 192.00 kbps (НТВ+)
Аудио#3: 48 kHz, AC3, 2/0 (L,R) ch, 128.00 kbps (Оригинал)

Общее
Полное имя : D:\Раздачи\Outland.1981.BDRip.avi
Формат : AVI
Формат/Информация : Audio Video Interleave
Размер файла : 1,45 Гбайт
Продолжительность : 1 ч. 49 м.
Общий поток : 1895 Кбит/сек
Название фильма : Чужая земля / Outland (1981) BDRip
Режиссёр : rip by Rulya74
Программа кодирования : VirtualDubModRus 1.5.10.2 (build 2542/release)
Библиотека кодирования : VirtualDubMod build 2542/release

Видео
Идентификатор : 0
Формат : MPEG-4 Visual
Профиль формата : Advanced Simple@L5
Параметр BVOP формата : 1
Параметр QPel формата : Нет
Параметр GMC формата : Без точки перехода
Параметр матрицы формата : Default (H.263)
Режим смешивания : Сжатый битовый поток
Идентификатор кодека : XVID
Идентификатор кодека/Подсказка : XviD
Продолжительность : 1 ч. 49 м.
Битрейт : 1364 Кбит/сек
Ширина : 720 пикселей
Высота : 304 пикселя
Соотношение сторон : 2,35:1
Частота кадров : 23,976 кадра/сек
Цветовое пространство : YUV
Субдискретизация насыщенности : 4:2:0
Битовая глубина : 8 бит
Тип развёртки : Прогрессивная
Метод сжатия : С потерями
Бит/(Пиксели*Кадры) : 0.260
Размер потока : 1,04 Гбайт (72%)
Библиотека кодирования : XviD 64

Аудио #1
Идентификатор : 1
Формат : AC-3
Формат/Информация : Audio Coding 3
Расширение режима : CM (complete main)
Идентификатор кодека : 2000
Продолжительность : 1 ч. 49 м.
Вид битрейта : Постоянный
Битрейт : 192 Кбит/сек
Каналы : 2 канала
Расположение каналов : Front: L R
Частота : 48,0 КГц
Битовая глубина : 16 бит
Метод сжатия : С потерями
Размер потока : 150 Мбайт (10%)
Выравнивание : Разделение по промежуткам
Продолжительность промежутка : 42 мс. (1,00 видеокадр)
Время предзагрузки промежутка : 500 мс.

Аудио #2
Идентификатор : 2
Формат : AC-3
Формат/Информация : Audio Coding 3
Расширение режима : CM (complete main)
Идентификатор кодека : 2000
Продолжительность : 1 ч. 49 м.
Вид битрейта : Постоянный
Битрейт : 192 Кбит/сек
Каналы : 2 канала
Расположение каналов : Front: L R
Частота : 48,0 КГц
Битовая глубина : 16 бит
Метод сжатия : С потерями
Размер потока : 150 Мбайт (10%)
Выравнивание : Разделение по промежуткам
Продолжительность промежутка : 42 мс. (1,00 видеокадр)
Время предзагрузки промежутка : 500 мс.

Аудио #3
Идентификатор : 3
Формат : AC-3
Формат/Информация : Audio Coding 3
Расширение режима : CM (complete main)
Идентификатор кодека : 2000
Продолжительность : 1 ч. 49 м.
Вид битрейта : Постоянный
Битрейт : 128 Кбит/сек
Каналы : 2 канала
Расположение каналов : Front: L R
Частота : 48,0 КГц
Битовая глубина : 16 бит
Метод сжатия : С потерями
Размер потока : 100 Мбайт (7%)
Выравнивание : Разделение по промежуткам
Продолжительность промежутка : 42 мс. (1,00 видеокадр)
Время предзагрузки промежутка : 500 мс.
Скриншоты:


Время раздачи: с 9:00 до 23:00
[NNM-Club.ru]_Outland.1981.BDRip.avi.torrent
 Торрент: Платиновая раздача  Зарегистрирован
 
Скачать


Примагнититься
 Зарегистрирован:   02 Сен 2012 11:43:25
 Размер:   1,45 GB  (
 Рейтинг:   4,5 (Голосов: 40)
 Поблагодарили:   195
 Проверка:   Оформление проверено модератором 02 Сен 2012 19:36:48
Как cкачать  ·  Как раздать  ·  Правильно оформить  ·  Поднять ратио!  
Devel87
Стаж: 6 лет 9 мес.
Сообщений: 1278
Ratio: 45,153
100%
vietnam.gif
Еще одно хорошее,проверенное временем кино.Благодарю за труды.Раздающих поддержу месяц,три
Показать сообщения:   
Начать новую тему   Ответить на тему    Торрент-трекер NNM-Club -> Классика кино и Старые фильмы до 90-х -> Старые Зарубежные Фильмы (HD*Rip/LQ, DVDRip, SATRip, VHSRip) Часовой пояс: GMT + 3
Страница 1 из 1