Классический форум-трекер
canvas not supported
Нас вместе: 4 104 594

Прекрасные господа из Буа-Доре / Les beaux messieurs de Bois-Doré (1976) DVDRip [серии 1-5 из 5] [RU, FR]


 
 
RSS
Начать новую тему   Ответить на тему    Торрент-трекер NNM-Club -> Зарубежные сериалы
Автор Сообщение
fictionss ®
Стаж: 9 лет 9 мес.
Сообщений: 108
Ratio: 3,387
Поблагодарили: 3363
100%
ussr.gif
Прекрасные господа из Буа-Доре / Les beaux messieurs de Bois-Doré (1976) DVDRip [серии 1-5 из 5] [RU, FR]
Русское название: Прекрасные господа из Буа-Доре
Оригинальное название: Les beaux messieurs de Bois-Doré
Год выпуска: 1976
Жанр: Приключения, Мелодрама

Перевод: Многоголосый закадровый, профессиональный
Вид субтитров: Отсутствуют


Дата мировой премьеры: 18.12.1976
Дата выхода DVD/Blu-Ray релиза: 18.10.2010

Режиссер: Бернард Бордери
Актеры: Жорж Маршаль, Иоланда Фоллио, Мишель Альбертини, Мишель Кретон, Филипп Лемэр, Франсуа Местре, Жан-Франсуа Порон, Марион Жаме, Жан Мартинелли, Мэрион Гейм, Оливье Юссено, Патрик Прежан, Жорж Атлас, Софи Баке, Нелли Бенедетти, Жоэлль Бернар, Робер Берри, Жак Кастело, Франсуа Далу, Пола Деэлли, Ги Делорм, Бернар-Пьер Доннадьё, Сильвен Левиньяк, Серж Маркан, Моник Мелинан, Клод Надаль, Клод Пети, Бланш Рейн, Дэнис Сёра, Виржини Виньон, Мими Янг

Описание фильма:
Этот фильм является экранизацией прекрасного романа французской писательницы Жорж Санд (настоящее имя — Амандина Аврора Люсиль Дюпен) "Это прекрасные господа из Буа-Доре" ("Ces beaux messieurs de Bois-Doré"), написанного в 1858 году.

События развиваются во Франции, в 1623 году, когда страной правит Людовик XIII. Согласно распоряжения кардинала Ришелье, в стране запрещены любые дуэли между аристократами. Пойманные на несоблюдении этого закона, подлежали смертной казни. Но горячие и смелые молодые представители аристократических родов не стремились к соблюдению этого указа. Среди них оказался и дуэлянт Виллериаль, который вынужден скрыться от преследования в замке маркиза де Буа Доре…

Маркиз Сильван де Буа Доре, после смерти короля Генриха IV, решил уйти из политики и уединится в своем фамильном замке, где и живет спокойной и размеренной жизнью. Однако, натура маркиза не приемлет подобного существования - его манят приключения, опасные сражения, любовные утехи и подвиги. Поэтому как нельзя кстати, здесь появляется молодой Виллериаль…

Продолжительность: 5x~01:27
Качество видео: DVDRip

Видеокодек: Xvid
Битрейт видео: ~1861
Размер кадра: 720 x 544
Аудиокодек: MP3
Битрейт аудио 1: MP3, 48.0 KHz, 2 ch, 192 kb/s VBR (Русский vногоголосый закадровый)
Битрейт аудио 2: MP3, 48.0 KHz, 2 ch, 192 kb/s VBR (Французский - оригинальный)
Общее
Полное имя : H:\Видео-закачка\Иностранные\Мелодрамы\Прекрасные господа из Буа-Доре (720x544)\pg_1.avi
Формат : AVI
Формат/Информация : Audio Video Interleave
Размер файла : 1,37 Гбайт
Продолжительность : 1 ч. 27 м.
Режим общего битрейта : Переменный
Общий поток : 2228 Кбит/сек
Программа кодирования : VirtualDubMod 1.5.4.1 (build 2178/release)
Библиотека кодирования : VirtualDubMod build 2178/release

Видео
Идентификатор : 0
Формат : MPEG-4 Visual
Профиль формата : Advanced Simple@L5
Параметр BVOP формата : 1
Параметр QPel формата : Нет
Параметр GMC формата : Без точки перехода
Параметр матрицы формата : Выборочная
Идентификатор кодека : XVID
Идентификатор кодека/Подсказка : XviD
Продолжительность : 1 ч. 27 м.
Битрейт : 1861 Кбит/сек
Ширина : 720 пикселей
Высота : 544 пикселя
Соотношение сторон : 4:3
Частота кадров : 25,000 кадров/сек
Цветовое пространство : YUV
Субдискретизация насыщенности : 4:2:0
Битовая глубина : 8 бит
Тип развёртки : Прогрессивная
Метод сжатия : С потерями
Бит/(Пиксели*Кадры) : 0.190
Размер потока : 1,14 Гбайт (84%)
Библиотека кодирования : XviD 58

Аудио #1
Идентификатор : 1
Формат : MPEG Audio
Версия формата : Version 1
Профиль формата : Layer 3
Режим : Joint stereo
Расширение режима : MS Stereo
Идентификатор кодека : 55
Идентификатор кодека/Подсказка : MP3
Продолжительность : 1 ч. 27 м.
Вид битрейта : Переменный
Битрейт : 174 Кбит/сек
Номинальный битрейт : 192 Кбит/сек
Каналы : 2 канала
Частота : 48,0 КГц
Метод сжатия : С потерями
Размер потока : 109 Мбайт (8%)
Выравнивание : Соединение по промежуткам
Продолжительность промежутка : 24 мс. (0,60 видеокадр)
Время предзагрузки промежутка : 419 мс.
Библиотека кодирования : LAME3.98r
Настройки программы : -m j -V 4 -q 2 -lowpass 18.6 --abr 192
Язык : Russian

Аудио #2
Идентификатор : 2
Формат : MPEG Audio
Версия формата : Version 1
Профиль формата : Layer 3
Режим : Joint stereo
Расширение режима : MS Stereo
Идентификатор кодека : 55
Идентификатор кодека/Подсказка : MP3
Продолжительность : 1 ч. 27 м.
Вид битрейта : Переменный
Битрейт : 173 Кбит/сек
Номинальный битрейт : 192 Кбит/сек
Каналы : 2 канала
Частота : 48,0 КГц
Метод сжатия : С потерями
Размер потока : 108 Мбайт (8%)
Выравнивание : Соединение по промежуткам
Продолжительность промежутка : 24 мс. (0,60 видеокадр)
Время предзагрузки промежутка : 356 мс.
Библиотека кодирования : LAME3.98r
Настройки программы : -m j -V 4 -q 2 -lowpass 18.6 --abr 192
Язык : Francais
Общее
Полное имя : H:\Видео-закачка\Иностранные\Мелодрамы\Прекрасные господа из Буа-Доре (720x544)\pg_2.avi
Формат : AVI
Формат/Информация : Audio Video Interleave
Размер файла : 1,37 Гбайт
Продолжительность : 1 ч. 32 м.
Режим общего битрейта : Переменный
Общий поток : 2121 Кбит/сек
Программа кодирования : VirtualDubMod 1.5.4.1 (build 2178/release)
Библиотека кодирования : VirtualDubMod build 2178/release

Видео
Идентификатор : 0
Формат : MPEG-4 Visual
Профиль формата : Advanced Simple@L5
Параметр BVOP формата : 1
Параметр QPel формата : Нет
Параметр GMC формата : Без точки перехода
Параметр матрицы формата : Выборочная
Идентификатор кодека : XVID
Идентификатор кодека/Подсказка : XviD
Продолжительность : 1 ч. 32 м.
Битрейт : 1757 Кбит/сек
Ширина : 720 пикселей
Высота : 544 пикселя
Соотношение сторон : 4:3
Частота кадров : 25,000 кадров/сек
Цветовое пространство : YUV
Субдискретизация насыщенности : 4:2:0
Битовая глубина : 8 бит
Тип развёртки : Прогрессивная
Метод сжатия : С потерями
Бит/(Пиксели*Кадры) : 0.179
Размер потока : 1,13 Гбайт (83%)
Библиотека кодирования : XviD 58

Аудио #1
Идентификатор : 1
Формат : MPEG Audio
Версия формата : Version 1
Профиль формата : Layer 3
Режим : Joint stereo
Расширение режима : MS Stereo
Идентификатор кодека : 55
Идентификатор кодека/Подсказка : MP3
Продолжительность : 1 ч. 32 м.
Вид битрейта : Переменный
Битрейт : 172 Кбит/сек
Каналы : 2 канала
Частота : 48,0 КГц
Метод сжатия : С потерями
Размер потока : 114 Мбайт (8%)
Выравнивание : Соединение по промежуткам
Продолжительность промежутка : 24 мс. (0,60 видеокадр)
Время предзагрузки промежутка : 516 мс.
Язык : Russian

Аудио #2
Идентификатор : 2
Формат : MPEG Audio
Версия формата : Version 1
Профиль формата : Layer 3
Режим : Joint stereo
Расширение режима : MS Stereo
Идентификатор кодека : 55
Идентификатор кодека/Подсказка : MP3
Продолжительность : 1 ч. 32 м.
Вид битрейта : Переменный
Битрейт : 171 Кбит/сек
Каналы : 2 канала
Частота : 48,0 КГц
Метод сжатия : С потерями
Размер потока : 113 Мбайт (8%)
Выравнивание : Соединение по промежуткам
Продолжительность промежутка : 24 мс. (0,60 видеокадр)
Время предзагрузки промежутка : 515 мс.
Язык : Francais
Общее
Полное имя : H:\Видео-закачка\Иностранные\Мелодрамы\Прекрасные господа из Буа-Доре (720x544)\pg_3.avi
Формат : AVI
Формат/Информация : Audio Video Interleave
Размер файла : 1,37 Гбайт
Продолжительность : 1 ч. 34 м.
Режим общего битрейта : Переменный
Общий поток : 2065 Кбит/сек
Программа кодирования : VirtualDubMod 1.5.4.1 (build 2178/release)
Библиотека кодирования : VirtualDubMod build 2178/release

Видео
Идентификатор : 0
Формат : MPEG-4 Visual
Профиль формата : Advanced Simple@L5
Параметр BVOP формата : 1
Параметр QPel формата : Нет
Параметр GMC формата : Без точки перехода
Параметр матрицы формата : Выборочная
Идентификатор кодека : XVID
Идентификатор кодека/Подсказка : XviD
Продолжительность : 1 ч. 34 м.
Битрейт : 1693 Кбит/сек
Ширина : 720 пикселей
Высота : 544 пикселя
Соотношение сторон : 4:3
Частота кадров : 25,000 кадров/сек
Цветовое пространство : YUV
Субдискретизация насыщенности : 4:2:0
Битовая глубина : 8 бит
Тип развёртки : Прогрессивная
Метод сжатия : С потерями
Бит/(Пиксели*Кадры) : 0.173
Размер потока : 1,12 Гбайт (82%)
Библиотека кодирования : XviD 58

Аудио #1
Идентификатор : 1
Формат : MPEG Audio
Версия формата : Version 1
Профиль формата : Layer 3
Режим : Joint stereo
Расширение режима : MS Stereo
Идентификатор кодека : 55
Идентификатор кодека/Подсказка : MP3
Продолжительность : 1 ч. 34 м.
Вид битрейта : Переменный
Битрейт : 176 Кбит/сек
Номинальный битрейт : 192 Кбит/сек
Каналы : 2 канала
Частота : 48,0 КГц
Метод сжатия : С потерями
Размер потока : 119 Мбайт (8%)
Выравнивание : Соединение по промежуткам
Продолжительность промежутка : 24 мс. (0,60 видеокадр)
Время предзагрузки промежутка : 480 мс.
Библиотека кодирования : LAME3.98r
Настройки программы : -m j -V 4 -q 2 -lowpass 18.6 --abr 192
Язык : Russian

Аудио #2
Идентификатор : 2
Формат : MPEG Audio
Версия формата : Version 1
Профиль формата : Layer 3
Режим : Joint stereo
Расширение режима : MS Stereo
Идентификатор кодека : 55
Идентификатор кодека/Подсказка : MP3
Продолжительность : 1 ч. 34 м.
Вид битрейта : Переменный
Битрейт : 176 Кбит/сек
Номинальный битрейт : 192 Кбит/сек
Каналы : 2 канала
Частота : 48,0 КГц
Метод сжатия : С потерями
Размер потока : 119 Мбайт (9%)
Выравнивание : Соединение по промежуткам
Продолжительность промежутка : 24 мс. (0,60 видеокадр)
Время предзагрузки промежутка : 475 мс.
Библиотека кодирования : LAME3.98r
Настройки программы : -m j -V 4 -q 2 -lowpass 18.6 --abr 192
Язык : Francais
Общее
Полное имя : H:\Видео-закачка\Иностранные\Мелодрамы\Прекрасные господа из Буа-Доре (720x544)\pg_4.avi
Формат : AVI
Формат/Информация : Audio Video Interleave
Размер файла : 1,37 Гбайт
Продолжительность : 1 ч. 22 м.
Режим общего битрейта : Переменный
Общий поток : 2374 Кбит/сек
Программа кодирования : VirtualDubMod 1.5.4.1 (build 2178/release)
Библиотека кодирования : VirtualDubMod build 2178/release

Видео
Идентификатор : 0
Формат : MPEG-4 Visual
Профиль формата : Advanced Simple@L5
Параметр BVOP формата : 1
Параметр QPel формата : Нет
Параметр GMC формата : Без точки перехода
Параметр матрицы формата : Выборочная
Идентификатор кодека : XVID
Идентификатор кодека/Подсказка : XviD
Продолжительность : 1 ч. 22 м.
Битрейт : 2007 Кбит/сек
Ширина : 720 пикселей
Высота : 544 пикселя
Соотношение сторон : 4:3
Частота кадров : 25,000 кадров/сек
Цветовое пространство : YUV
Субдискретизация насыщенности : 4:2:0
Битовая глубина : 8 бит
Тип развёртки : Прогрессивная
Метод сжатия : С потерями
Бит/(Пиксели*Кадры) : 0.205
Размер потока : 1,15 Гбайт (85%)
Библиотека кодирования : XviD 58

Аудио #1
Идентификатор : 1
Формат : MPEG Audio
Версия формата : Version 1
Профиль формата : Layer 3
Режим : Joint stereo
Расширение режима : MS Stereo
Идентификатор кодека : 55
Идентификатор кодека/Подсказка : MP3
Продолжительность : 1 ч. 22 м.
Вид битрейта : Переменный
Битрейт : 173 Кбит/сек
Номинальный битрейт : 192 Кбит/сек
Каналы : 2 канала
Частота : 48,0 КГц
Метод сжатия : С потерями
Размер потока : 102 Мбайт (7%)
Выравнивание : Соединение по промежуткам
Продолжительность промежутка : 24 мс. (0,60 видеокадр)
Время предзагрузки промежутка : 513 мс.
Библиотека кодирования : LAME3.98r
Настройки программы : -m j -V 4 -q 2 -lowpass 18.6 --abr 192
Язык : Russian

Аудио #2
Идентификатор : 2
Формат : MPEG Audio
Версия формата : Version 1
Профиль формата : Layer 3
Режим : Joint stereo
Идентификатор кодека : 55
Идентификатор кодека/Подсказка : MP3
Продолжительность : 1 ч. 22 м.
Вид битрейта : Переменный
Битрейт : 172 Кбит/сек
Номинальный битрейт : 192 Кбит/сек
Каналы : 2 канала
Частота : 48,0 КГц
Метод сжатия : С потерями
Размер потока : 101 Мбайт (7%)
Выравнивание : Соединение по промежуткам
Продолжительность промежутка : 24 мс. (0,60 видеокадр)
Время предзагрузки промежутка : 505 мс.
Библиотека кодирования : LAME3.98r
Настройки программы : -m j -V 4 -q 2 -lowpass 18.6 --abr 192
Язык : Francais
Общее
Полное имя : H:\Видео-закачка\Иностранные\Мелодрамы\Прекрасные господа из Буа-Доре (720x544)\pg_5.avi
Формат : AVI
Формат/Информация : Audio Video Interleave
Размер файла : 1,37 Гбайт
Продолжительность : 1 ч. 19 м.
Режим общего битрейта : Переменный
Общий поток : 2459 Кбит/сек
Программа кодирования : VirtualDubMod 1.5.4.1 (build 2178/release)
Библиотека кодирования : VirtualDubMod build 2178/release

Видео
Идентификатор : 0
Формат : MPEG-4 Visual
Профиль формата : Advanced Simple@L5
Параметр BVOP формата : 1
Параметр QPel формата : Нет
Параметр GMC формата : Без точки перехода
Параметр матрицы формата : Выборочная
Идентификатор кодека : XVID
Идентификатор кодека/Подсказка : XviD
Продолжительность : 1 ч. 19 м.
Битрейт : 2091 Кбит/сек
Ширина : 720 пикселей
Высота : 544 пикселя
Соотношение сторон : 4:3
Частота кадров : 25,000 кадров/сек
Цветовое пространство : YUV
Субдискретизация насыщенности : 4:2:0
Битовая глубина : 8 бит
Тип развёртки : Прогрессивная
Метод сжатия : С потерями
Бит/(Пиксели*Кадры) : 0.214
Размер потока : 1,16 Гбайт (85%)
Библиотека кодирования : XviD 58

Аудио #1
Идентификатор : 1
Формат : MPEG Audio
Версия формата : Version 1
Профиль формата : Layer 3
Режим : Joint stereo
Расширение режима : MS Stereo
Идентификатор кодека : 55
Идентификатор кодека/Подсказка : MP3
Продолжительность : 1 ч. 19 м.
Вид битрейта : Переменный
Битрейт : 174 Кбит/сек
Номинальный битрейт : 192 Кбит/сек
Каналы : 2 канала
Частота : 48,0 КГц
Метод сжатия : С потерями
Размер потока : 98,7 Мбайт (7%)
Выравнивание : Соединение по промежуткам
Продолжительность промежутка : 24 мс. (0,60 видеокадр)
Время предзагрузки промежутка : 495 мс.
Библиотека кодирования : LAME3.98r
Настройки программы : -m j -V 4 -q 2 -lowpass 18.6 --abr 192
Язык : Russian

Аудио #2
Идентификатор : 2
Формат : MPEG Audio
Версия формата : Version 1
Профиль формата : Layer 3
Режим : Joint stereo
Идентификатор кодека : 55
Идентификатор кодека/Подсказка : MP3
Продолжительность : 1 ч. 19 м.
Вид битрейта : Переменный
Битрейт : 173 Кбит/сек
Номинальный битрейт : 192 Кбит/сек
Каналы : 2 канала
Частота : 48,0 КГц
Метод сжатия : С потерями
Размер потока : 98,4 Мбайт (7%)
Выравнивание : Соединение по промежуткам
Продолжительность промежутка : 24 мс. (0,60 видеокадр)
Время предзагрузки промежутка : 521 мс.
Библиотека кодирования : LAME3.98r
Настройки программы : -m j -V 4 -q 2 -lowpass 18.6 --abr 192
Язык : Francais
1-я серия - http://multi-up.com/758292
2-я серия - http://multi-up.com/758295
3-я серия - http://multi-up.com/758296
4-я серия - http://multi-up.com/758297
5-я серия - http://multi-up.com/758299
Скриншоты:
Время раздачи: выходные с 10:00 до 24:00, будни с 20:00 до 24:00
[NNM-Club.ru]_Les beaux messieurs de Bois-Dore (1976)_[Ru&Fr]_(720x544).torrent
 Торрент: Платиновая раздача  Зарегистрирован
 
Скачать


 Зарегистрирован:   08 Сен 2012 14:16:30
 Размер:   6,83 GB  (
 Рейтинг:   4,6 (Голосов: 28)
 Поблагодарили:   94
 Проверка:   Оформление проверено модератором 09 Сен 2012 12:44:40
Как cкачать  ·  Как раздать  ·  Правильно оформить  ·  Поднять ратио!  
perdez
Стаж: 10 лет 10 мес.
Сообщений: 175
Ratio: 5,708
29.61%
russia.gif
Вот спасибо, порадовали старичка! Любил этот сериал.
fictionss ®
Стаж: 9 лет 9 мес.
Сообщений: 108
Ratio: 3,387
Поблагодарили: 3363
100%
ussr.gif
На здоровье! Я его тоже обожаю! Фильм из моего детства! =) =) =)
semen4265
Стаж: 9 лет 6 мес.
Сообщений: 81
Ratio: 31,992
100%
Откуда: тула
russia.gif
Полностью поддерживаю! :супер!:
kordes
Стаж: 9 лет 2 мес.
Сообщений: 8
Ratio: 0,41
100%
а почему не качает?
Griego
Стаж: 8 лет 3 мес.
Сообщений: 43
Ratio: 7,818
100%
russia.gif
Вот спасибо, собирался поискать на трекерах, а тут само в лапы пришло =)
kordes
Стаж: 9 лет 2 мес.
Сообщений: 8
Ratio: 0,41
100%
а у меня совсем не качается... :( :(
абидна
fictionss ®
Стаж: 9 лет 9 мес.
Сообщений: 108
Ratio: 3,387
Поблагодарили: 3363
100%
ussr.gif
М..дя! Что то на раздаче не густо! Выхожу на раздачу!!!!!!! :стеб:

_________________
Когда я могу сидеть - я никогда не стою!
Когда я могу лежать - я никогда не сижу!
zulef
Стаж: 9 лет 4 мес.
Сообщений: 97
Ratio: 59,338
Поблагодарили: 212
100%
russia.gif
Люди! Дайте скачать!!!
Tombdemon
Стаж: 9 лет
Сообщений: 44
Ratio: 1,936
100%
Откуда: Петербург
russia.gif
Сиды! Есть кто на раздаче?)
помогите скачать, плиз
as5550555
Стаж: 6 лет 7 мес.
Сообщений: 2
Ratio: 0,278
0%
Встаньте на раздачу пожалуйста
Показать сообщения:   
Начать новую тему   Ответить на тему    Торрент-трекер NNM-Club -> Зарубежные сериалы Часовой пояс: GMT + 3
Страница 1 из 1