Классический форум-трекер
canvas not supported
Нас вместе: 4 093 719

Высшая верность / High Fidelity (2000) BDRip


 
 
RSS
Начать новую тему   Ответить на тему    Торрент-трекер NNM-Club -> Зарубежное кино -> Зарубежные Фильмы (HD*Rip/LQ, DVDRip, SATRip, VHSRip)
Автор Сообщение
eXPpectant ®
Стаж: 10 лет 3 мес.
Сообщений: 2458
Ratio: 1628,264
Раздал: 18,08 TB
Поблагодарили: 300563
100%
Откуда: Нижний Тагил + Дмитров
russia.gif
Высшая верность / High Fidelity (2000) BDRip
Русское название: Высшая верность
Оригинальное название: High Fidelity
Год выпуска: 2000
Страна: США, Великобритания
Жанр: Драма, Мелодрама, Комедия, Музыка

Описание фильма:
Роб — истинный фанатик своего дела, но к сожалению, этим любимым делом оказывается не шпионская деятельность или полет в космос, а обычная продажа пластинок. Так же как эти пережитки прошлого, его будни спокойно идут по кругу.

Но однажды игла его судьбы с визгом соскакивает: любимая девушка Роба ушла к другому! Теперь одержимому меломану придется прокрутить свою жизнь назад, чтобы найти фальшивую ноту, ведь где-то он должен был совершить ошибку.

Режиссер: Стивен Фрирз
Актеры: Джон Кьюсак, Джек Блэк, Лиза Боне, Джоэль Картер, Джоан Кьюсак, Сара Гилберт, Ибен Йейле, Тодд Луисо, Лили Тейлор, Кэтрин Зета-Джонс

Продолжительность: 01:53:40
Перевод: Профессиональный (двуголосый, закадровый) / Профессиональный (многоголосый, закадровый)
Релиз группа:



Видеокодек: Xvid
Битрейт видео: ~2102 kb/s
Размер кадра: 704x384
Качество видео: BDRip
Аудио:
Аудио#1:
48 kHz, AC3 Dolby Digital, 3/2 (L,C,R,l,r) + LFE ch, ~448 kb/s avg (Профессиональный (двуголосый, закадровый) VideoService)
Аудио#2: 48 kHz, AC3 Dolby Digital, 2/0 (L,R) ch, ~192 kb/s avg (Профессиональный (многоголосый, закадровый) 5 канал)
Аудио#3: 48 kHz, AC3 Dolby Digital, 3/2 (L,C,R,l,r) + LFE ch, ~448 kb/s avg (Двуголосый НТВ+) (отдельно)
Аудио#4: 48 kHz, AC3 Dolby Digital, 2/0 (L,R) ch, ~192 kb/s avg (Английский) (отдельно)
Общее
Полное имя : D:\Vysshaya.vernost.2000.DUALRUS.BDRip.XviD.AC3.-HQCLUB.avi
Формат : AVI
Формат/Информация : Audio Video Interleave
Профиль формата : OpenDML
Размер файла : 2,18 Гбайт
Продолжительность : 1 ч. 53 м.
Общий поток : 2749 Кбит/сек
Название фильма : Высшая верность / Фанатик / High Fidelity (2000) BDRip
Жанр : драма, мелодрама, комедия
Программа кодирования : VirtualDubMod 1.5.10.2 (build 2540/release)
Примечание : 08.09.2012

Видео
Идентификатор : 0
Формат : MPEG-4 Visual
Профиль формата : Advanced Simple@L5
Параметр BVOP формата : 1
Параметр QPel формата : Нет
Параметр GMC формата : Без точки перехода
Параметр матрицы формата : Выборочная
Идентификатор кодека : XVID
Идентификатор кодека/Подсказка : XviD
Продолжительность : 1 ч. 53 м.
Битрейт : 2091 Кбит/сек
Ширина : 704 пикселя
Высота : 384 пикселя
Соотношение сторон : 1,85:1
Частота кадров : 23,976 кадра/сек
Цветовое пространство : YUV
Субдискретизация насыщенности : 4:2:0
Битовая глубина : 8 бит
Тип развёртки : Прогрессивная
Метод сжатия : С потерями
Бит/(Пиксели*Кадры) : 0.323
Размер потока : 1,66 Гбайт (76%)
Библиотека кодирования : XviD 65

Аудио #1
Идентификатор : 1
Формат : AC-3
Формат/Информация : Audio Coding 3
Расширение режима : CM (complete main)
Параметр Endianness формата : Big
Идентификатор кодека : 2000
Продолжительность : 1 ч. 53 м.
Вид битрейта : Постоянный
Битрейт : 448 Кбит/сек
Каналы : 6 каналов
Расположение каналов : Front: L C R, Side: L R, LFE
Частота : 48,0 КГц
Битовая глубина : 16 бит
Метод сжатия : С потерями
Размер потока : 364 Мбайт (16%)
Выравнивание : Разделение по промежуткам
Продолжительность промежутка : 42 мс. (1,00 видеокадр)
Время предзагрузки промежутка : 500 мс.

Аудио #2
Идентификатор : 2
Формат : AC-3
Формат/Информация : Audio Coding 3
Расширение режима : CM (complete main)
Параметр Endianness формата : Big
Идентификатор кодека : 2000
Продолжительность : 1 ч. 53 м.
Вид битрейта : Постоянный
Битрейт : 192 Кбит/сек
Каналы : 2 канала
Расположение каналов : Front: L R
Частота : 48,0 КГц
Битовая глубина : 16 бит
Метод сжатия : С потерями
Размер потока : 156 Мбайт (7%)
Выравнивание : Разделение по промежуткам
Продолжительность промежутка : 42 мс. (1,00 видеокадр)
Время предзагрузки промежутка : 500 мс.
Скриншоты:


Время раздачи: 24/7
[NNM-Club.ru]_Vysshaya.vernost.2000.DUALRUS.BDRip.torrent
 Торрент: Платиновая раздача  Зарегистрирован
 
Скачать


Примагнититься
 Зарегистрирован:   08 Сен 2012 16:40:06
 Размер:   2,18 GB  (
 Рейтинг:   4,3 (Голосов: 11)
 Поблагодарили:   55
 Проверка:   Оформление проверено модератором 08 Сен 2012 21:16:07
Как cкачать  ·  Как раздать  ·  Правильно оформить  ·  Поднять ратио!  
Показать сообщения:   
Начать новую тему   Ответить на тему    Торрент-трекер NNM-Club -> Зарубежное кино -> Зарубежные Фильмы (HD*Rip/LQ, DVDRip, SATRip, VHSRip) Часовой пояс: GMT + 3
Страница 1 из 1