Классический форум-трекер
canvas not supported
Нас вместе: 4 077 806

Цветы войны / The Flowers of War / Jin ling shi san chai (2011) DVD9


 
 
RSS
Начать новую тему   Ответить на тему    Торрент-трекер NNM-Club -> Зарубежное кино -> Азиатское кино (DVD)
Автор Сообщение
An2roid ®
Стаж: 8 лет 9 мес.
Сообщений: 201
Ratio: 216,293
Раздал: 11,43 TB
Поблагодарили: 14254
100%
Откуда: Ярославль
logo.gif
Цветы войны / The Flowers of War / Jin ling shi san chai (2011) DVD9
Русское название: Цветы войны
Оригинальное название: The Flowers of War / Jin ling shi san chai
Год выпуска: 2011
Производство: Китай, Гонконг, Beijing New Picture Film Co., EDKO Film Ltd., New Picture Company
Жанр: Драма, военный, история
Перевод: Дублированный
Субтитры: Отсутствуют
Дата мировой премьеры: 16 декабря 2011
Дата российской премьеры: 2 августа 2012
Дата выхода DVD релиза: 10 сентября 2012
Описание фильма:
Фильм основан на реальных событиях. Действия разворачиваются в период японо-китайской войны. Главный герой, американский гробовщик Джон, направляется в Католическую церковь в Нанкине, чтобы подготовить священника к похоронам. По прибытию он оказывается единственным мужчиной среди учениц монастыря и проституток из соседнего борделя в эпицентре военных действий. Оказавшись в таком положении, он выдаёт себя за священника и пытается спасти обе группы от ужасов вторжения японской армии…

Режиссер: Чжан Имоу
Актеры: Кристиан Бейл, Пол Шнайдер, Ни Ни, Тун Давэй, Чжан Сини, Ацуро Ватабэ, Сигэо Кобаяси, Хуан Тяньюань, Хань Ситин, Цао Кэфань, Шон Доу, Не Юань
Релиз группа:


Продолжительность: 02:16:21
Качество видео: DVD9

Видеокодек: MPEG-2
Битрейт видео: ~5391 Кбит/сек
Размер кадра: 720х576@1024x576
Аудиокодек: AC3 5.1
Битрейт аудио:
1. AC3, 2 ch, 192 Кбит/с - русский
2. AC3, 6 ch, 384 Кбит/с - русский

ВСЕ РАЗДАЧИ
Отсутствует
Общее
Полное имя : G:\nnm-club.me\Cvety.vojny.2011.DVD9\VIDEO_TS\VTS_03_5.VOB
Формат : MPEG-PS
Размер файла : 1024 Мбайт
Продолжительность : 23 м.
Общий поток : 6089 Кбит/сек

Видео
Идентификатор : 224 (0xE0)
Формат : MPEG Video
Версия формата : Version 2
Профиль формата : Main@Main
Параметр BVOP формата : Да
Параметр матрицы формата : По умолчанию
Параметры GOP формата : M=3, N=15
Продолжительность : 23 м.
Вид битрейта : Переменный
Битрейт : 5391 Кбит/сек
Номинальный битрейт : 8000 Кбит/сек
Ширина : 720 пикс.
Высота : 576 пикс.
Соотношение сторон : 16:9
Частота кадров : 25,000 кадр/сек
Стандарт вещания : PAL
Цветовое пространство : YUV
Подвыборка цветности : 4:2:0
Битовая глубина : 8 бит
Тип развёртки : Чересстрочная
Порядок развёртки : Верхнее поле первое
Метод сжатия : С потерями
Бит/(Пиксели*Кадры) : 0.520
Размер потока : 906 Мбайт (89%)

Аудио #1
Идентификатор : 189 (0xBD)-128 (0x80)
Формат : AC-3
Формат/Информация : Audio Coding 3
Расширение режима : CM (complete main)
Режим смешивания : DVD-Video
Продолжительность : 23 м.
Вид битрейта : Постоянный
Битрейт : 192 Кбит/сек
Канал(ы) : 2 канала(ов)
Расположение каналов : Front: L R
Частота : 48,0 КГц
Битовая глубина : 16 бит
Метод сжатия : С потерями
Задержка видео : -760 мс.
Размер потока : 32,3 Мбайт (3%)

Аудио #2
Идентификатор : 189 (0xBD)-129 (0x81)
Формат : AC-3
Формат/Информация : Audio Coding 3
Расширение режима : CM (complete main)
Режим смешивания : DVD-Video
Продолжительность : 23 м.
Вид битрейта : Постоянный
Битрейт : 384 Кбит/сек
Канал(ы) : 6 канала(ов)
Расположение каналов : Front: L C R, Side: L R, LFE
Частота : 48,0 КГц
Битовая глубина : 16 бит
Метод сжатия : С потерями
Задержка видео : -856 мс.
Размер потока : 64,6 Мбайт (6%)

Меню
Title: HITACHI
Size: 5.82 Gb ( 6 099 794 KBytes ) - DVD-9
Enabled regions: 1, 2, 3, 4, 5, 6, 7, 8

VTS_01 :
Play Length: 00:00:19
Video: PAL 4:3 (720x576) VBR
Audio:
Russian (Dolby AC3, 2 ch)

VTS_02 :
Play Length: 00:00:02
Video: PAL 16:9 (720x576) VBR, Auto Pan&Scan
Audio:
Russian (Dolby AC3, 2 ch)

VTS_03 :
Play Length: 02:16:21
Video: PAL 16:9 (720x576) VBR, Auto Pan&Scan
Audio:
Russian (Dolby AC3, 2 ch)
Russian (Dolby AC3, 6 ch)

Menu Video:
PAL 4:3 (720x576) VBR
Menu Subtitles:
Not specified
Menu English Language Unit :
Root Menu
Chapter (PTT) Menu
Скриншоты:



Время раздачи: 24/7 (до 10 скачавших)
[NNM-Club.ru]_Cvety.vojny.2011.DVD9.torrent
 Торрент: Платиновая раздача  Зарегистрирован
 
Скачать


 Зарегистрирован:   10 Сен 2012 23:40:45
 Размер:   5,82 GB  (
 Рейтинг:   4,5 (Голосов: 18)
 Поблагодарили:   66
 Проверка:   Оформление проверено модератором 11 Сен 2012 11:35:17
Как cкачать  ·  Как раздать  ·  Правильно оформить  ·  Поднять ратио!  

_________________
vsizop
Стаж: 10 лет
Сообщений: 73
Ratio: 3,7
100%
ukraine.gif
Что-то в последнее время начали показывать про японцев с негативной стороны. И уже где-то 6 фильм я вижу о вторжении японской армии. К чему бы это? Показывать одно и тоже...
NNM-Club_MK
Стаж: 9 лет 4 мес.
Сообщений: 12
Ratio: 8,345
100%
russia.gif
Фильм очень хороший, он про войну и про человечность, про то, что даже посреди горя и жестокости можно не потерять лица и остаться человеком.
S.Pchelintcev
Стаж: 9 лет 5 мес.
Сообщений: 13
Ratio: 0,982
6.67%
Откуда: Санкт-Петербург
russia.gif
хорошо
Nav
Стаж: 10 лет 5 мес.
Сообщений: 25
Ratio: 7,332
1.42%
Откуда: Harbin
china.gif
vsizop писал(а): Перейти к сообщению
Что-то в последнее время начали показывать про японцев с негативной стороны. И уже где-то 6 фильм я вижу о вторжении японской армии. К чему бы это? Показывать одно и тоже...


Это китайский фильм, а от китайцев трудно ожидать показа японцев с хорошей стороны, после того что те творили в Китае в годы войны..
Показать сообщения:   
Начать новую тему   Ответить на тему    Торрент-трекер NNM-Club -> Зарубежное кино -> Азиатское кино (DVD) Часовой пояс: GMT + 3
Страница 1 из 1