Классический форум-трекер
canvas not supported
Нас вместе: 4 065 199

Мистер Бин: Фильм-катастрофа / Bean (1997) BDRip [H.264/1080p] (+ Exclusive + Scenes Unseen)


 
 
RSS
Начать новую тему   Ответить на тему    Торрент-трекер NNM-Club -> Зарубежное кино -> Зарубежные Фильмы (HD, UHD-LQ)
Автор Сообщение
Moorre ®
Uploaders 200+
 
Стаж: 9 лет 1 мес.
Сообщений: 309
Ratio: 28K
Раздал: 239,2 TB
Поблагодарили: 1412
100%
Откуда: Москва
russia.gif
Мистер Бин: Фильм-катастрофа / Bean (1997) BDRip [H.264/1080p] (+ Exclusive + Scenes Unseen)
Производство: США, Великобритания, Universal
Жанр: Комедия, Семейный

Режиссер: Мэл Смит
Актеры: Роуэн Эткинсон, Питер МакНикол, Джон Миллз, Памела Рид, Харрис Юлин, Берт Рейнолдс, Ларри Дрэйк, Дэнни Голдринг, Джонни Галэки, Крис Эллис

Описание:
Фильм начинается с того, что Мистера Бина хотят уволить из Национальной Лондонской Галереи, где он работает смотрителем. Причина увольнения проста: сон на работе и постоянные придурковатые выходки необыкновенного сотрудника. В последний момент в дело вмешивается председатель Галереи. Он предлагает отправить Мистера Бина в США в качестве профессора-делегата, где Бин должен будет выступить на «величайшей в истории Америки» выставке. Дело в том, что Лос-Анджелесской Художественной Галерее, принадлежащей Джорджу Гриверсону, очень повезло: генерал Ньютон сделал крупное благотворительное пожертвование, на которое у Франции была выкуплена картина «Мать Вистлера». Не без приключений Бин прибывает в Калифорнию, где останавливается у одного из сотрудников Галереи в пригороде Лос-Анджелеса. Тут-то и начинается круговорот невероятных событий.


Рейтинг MPAA: PG-13

Ripped by: Moorre
Продолжительность: 01:24:43 + 00:03:46 + 00:20:34
Качество видео: BDRip
Перевод: Профессиональный (многоголосый, закадровый)
Субтитры: English, Czech, Russian, Portuguese, Polish

Видеокодек: AVC/H.264, 1920x1040, ~12 Mbps, 23.976 fps, 0.250 bpp
Аудио #1: DTS, 6 ch, 755 Kbps - Русский профессиональный MVO
Аудио #2: DTS, 6 ch, 1510 Kbps - English, оригинал
Аудио #3: DTS, 6 ch, 755 Kbps - Польский профессиональный VO
Код: выделить все

General
Unique ID                                : 254400928632053306406353058557617296524 (0xBF63D62D9890EE4C99EB4E89E088D48C)
Complete name                            : J:\Мистер Бин Фильм-катастрофа = Bean (1997) BDRip 1080p [NNM-Club]\Bean.(1997).BDRip.mkv
Format                                   : Matroska
Format version                           : Version 2
File size                                : 9.54 GiB
Duration                                 : 1h 29mn
Overall bit rate                         : 15.3 Mbps
Movie name                               : Мистер Бин.Фильм-катастрофа. Bean.(1997).Blu-ray.Title800.BlurayRip
Encoded date                             : UTC 2011-12-21 02:38:40
Writing application                      : mkvmerge v5.0.0 ('Die Wahre Liebe') built on Sep 25 2011 20:33:49
Writing library                          : libebml v1.2.2 + libmatroska v1.3.0

Video
ID                                       : 1
Format                                   : AVC
Format/Info                              : Advanced Video Codec
Format profile                           : High@L5.1
Format settings, CABAC                   : Yes
Format settings, ReFrames                : 2 frames
Muxing mode                              : Header stripping
Codec ID                                 : V_MPEG4/ISO/AVC
Duration                                 : 1h 29mn
Bit rate                                 : 12.0 Mbps
Width                                    : 1 920 pixels
Height                                   : 1 040 pixels
Display aspect ratio                     : 1.85:1
Frame rate mode                          : Constant
Frame rate                               : 23.976 fps
Color space                              : YUV
Chroma subsampling                       : 4:2:0
Bit depth                                : 8 bits
Scan type                                : Progressive
Bits/(Pixel*Frame)                       : 0.250
Stream size                              : 7.46 GiB (78%)
Title                                    : Bean (1997) [1080p] BDRip
Writing library                          : x264 core
Language                                 : English
Default                                  : Yes
Forced                                   : No
Color primaries                          : BT.709
Transfer characteristics                 : BT.709
Matrix coefficients                      : BT.709

Audio #1
ID                                       : 2
Format                                   : DTS
Format/Info                              : Digital Theater Systems
Muxing mode                              : Header stripping
Codec ID                                 : A_DTS
Duration                                 : 1h 29mn
Bit rate mode                            : Constant
Bit rate                                 : 755 Kbps
Channel(s)                               : 6 channels
Channel positions                        : Front: L C R, Side: L R, LFE
Sampling rate                            : 48.0 KHz
Bit depth                                : 16 bits
Compression mode                         : Lossy
Stream size                              : 482 MiB (5%)
Title                                    : DTS 768 Кбит/сек, 5.1, 48,0 КГц, 16-bit (RUS)
Language                                 : Russian
Default                                  : Yes
Forced                                   : No

Audio #2
ID                                       : 3
Format                                   : DTS
Format/Info                              : Digital Theater Systems
Muxing mode                              : Header stripping
Codec ID                                 : A_DTS
Duration                                 : 1h 29mn
Bit rate mode                            : Constant
Bit rate                                 : 1 510 Kbps
Channel(s)                               : 6 channels
Channel positions                        : Front: L C R, Side: L R, LFE
Sampling rate                            : 48.0 KHz
Bit depth                                : 24 bits
Compression mode                         : Lossy
Stream size                              : 964 MiB (10%)
Title                                    : DTS ~1510 Кбит/сек, 5.1, 48,0 КГц, 24-bit (ENG)
Language                                 : English
Default                                  : No
Forced                                   : No

Audio #3
ID                                       : 4
Format                                   : DTS
Format/Info                              : Digital Theater Systems
Muxing mode                              : Header stripping
Codec ID                                 : A_DTS
Duration                                 : 1h 29mn
Bit rate mode                            : Constant
Bit rate                                 : 755 Kbps
Channel(s)                               : 6 channels
Channel positions                        : Front: L C R, Side: L R, LFE
Sampling rate                            : 48.0 KHz
Bit depth                                : 16 bits
Compression mode                         : Lossy
Stream size                              : 482 MiB (5%)
Title                                    : DTS 768 Кбит/сек, 5.1, 48,0 КГц, 16-bit (POL)
Language                                 : Polish
Default                                  : No
Forced                                   : No

Text #1
ID                                       : 5
Format                                   : VobSub
Muxing mode                              : zlib
Codec ID                                 : S_VOBSUB
Codec ID/Info                            : The same subtitle format used on DVDs
Language                                 : English
Default                                  : No
Forced                                   : No

Text #2
ID                                       : 6
Format                                   : VobSub
Muxing mode                              : zlib
Codec ID                                 : S_VOBSUB
Codec ID/Info                            : The same subtitle format used on DVDs
Language                                 : Czech
Default                                  : No
Forced                                   : No

Text #3
ID                                       : 7
Format                                   : VobSub
Muxing mode                              : zlib
Codec ID                                 : S_VOBSUB
Codec ID/Info                            : The same subtitle format used on DVDs
Language                                 : Russian
Default                                  : No
Forced                                   : No

Text #4
ID                                       : 8
Format                                   : VobSub
Muxing mode                              : zlib
Codec ID                                 : S_VOBSUB
Codec ID/Info                            : The same subtitle format used on DVDs
Language                                 : Portuguese
Default                                  : No
Forced                                   : No

Text #5
ID                                       : 9
Format                                   : VobSub
Muxing mode                              : zlib
Codec ID                                 : S_VOBSUB
Codec ID/Info                            : The same subtitle format used on DVDs
Language                                 : Polish
Default                                  : No
Forced                                   : No

Text #6
ID                                       : 10
Format                                   : VobSub
Muxing mode                              : zlib
Codec ID                                 : S_VOBSUB
Codec ID/Info                            : The same subtitle format used on DVDs
Language                                 : Russian
Default                                  : No
Forced                                   : No

Menu
00:00:00.000                             : en:(01)00:00:00:000
00:01:12.322                             : en:(02)00:01:12:322
00:06:32.850                             : en:(03)00:06:32:850
00:09:49.589                             : en:(04)00:09:49:589
00:17:13.240                             : en:(05)00:17:13:240
00:25:49.214                             : en:(06)00:25:49:214
00:29:06.369                             : en:(07)00:29:06:369
00:31:24.007                             : en:(08)00:31:24:007
00:33:04.148                             : en:(09)00:33:04:148
00:37:54.063                             : en:(10)00:37:54:063
00:39:20.066                             : en:(11)00:39:20:066
00:46:08.932                             : en:(12)00:46:08:932
00:48:40.918                             : en:(13)00:48:40:918
00:53:40.759                             : en:(14)00:53:40:759
00:58:36.304                             : en:(15)00:58:36:304
01:07:10.026                             : en:(16)01:07:10:026
01:09:45.431                             : en:(17)01:09:45:431
01:17:51.750                             : en:(18)01:17:51:750
01:20:16.186                             : en:(19)01:20:16:186
01:22:47.963                             : en:(20)01:22:47:963
01:29:17.101                             : en:(21)01:29:17:101
Код: выделить все

General
Unique ID                                : 208679153839315147983826213488247453580 (0x9CFE24A32CCC33758619F6C88D7C378C)
Complete name                            : J:\Мистер Бин Фильм-катастрофа = Bean (1997) BDRip 1080p [NNM-Club]\Bean.(1997).Scenes.Unseen.mkv
Format                                   : Matroska
Format version                           : Version 2
File size                                : 383 MiB
Duration                                 : 20mn 33s
Overall bit rate                         : 2 606 Kbps
Movie name                               : Мистер Бин.Фильм-катастрофа. Bean.(1997).Blu-ray.Title800.BlurayRip
Encoded date                             : UTC 2011-12-21 02:51:32
Writing application                      : mkvmerge v5.0.0 ('Die Wahre Liebe') built on Sep 25 2011 20:33:49
Writing library                          : libebml v1.2.2 + libmatroska v1.3.0

Video
ID                                       : 1
Format                                   : AVC
Format/Info                              : Advanced Video Codec
Format profile                           : High@L5.1
Format settings, CABAC                   : Yes
Format settings, ReFrames                : 2 frames
Format settings, GOP                     : M=3, N=22
Muxing mode                              : Header stripping
Codec ID                                 : V_MPEG4/ISO/AVC
Duration                                 : 20mn 33s
Bit rate                                 : 2 362 Kbps
Width                                    : 624 pixels
Height                                   : 466 pixels
Display aspect ratio                     : 4:3
Frame rate mode                          : Constant
Frame rate                               : 29.970 fps
Color space                              : YUV
Chroma subsampling                       : 4:2:0
Bit depth                                : 8 bits
Scan type                                : Progressive
Bits/(Pixel*Frame)                       : 0.271
Stream size                              : 347 MiB (91%)
Writing library                          : x264 core
Language                                 : English
Default                                  : Yes
Forced                                   : No
Color primaries                          : BT.601 NTSC
Transfer characteristics                 : BT.709
Matrix coefficients                      : BT.601

Audio
ID                                       : 2
Format                                   : AC-3
Format/Info                              : Audio Coding 3
Mode extension                           : CM (complete main)
Format settings, Endianness              : Big
Muxing mode                              : Header stripping
Codec ID                                 : A_AC3
Duration                                 : 20mn 33s
Bit rate mode                            : Constant
Bit rate                                 : 192 Kbps
Channel(s)                               : 2 channels
Channel positions                        : Front: L R
Sampling rate                            : 48.0 KHz
Bit depth                                : 16 bits
Compression mode                         : Lossy
Delay relative to video                  : 200ms
Stream size                              : 28.2 MiB (7%)
Language                                 : English
Default                                  : Yes
Forced                                   : No

Text #1
ID                                       : 3
Format                                   : VobSub
Muxing mode                              : zlib
Codec ID                                 : S_VOBSUB
Codec ID/Info                            : The same subtitle format used on DVDs
Language                                 : English
Default                                  : No
Forced                                   : No

Text #2
ID                                       : 4
Format                                   : VobSub
Muxing mode                              : zlib
Codec ID                                 : S_VOBSUB
Codec ID/Info                            : The same subtitle format used on DVDs
Language                                 : Russian
Default                                  : Yes
Forced                                   : No

Text #3
ID                                       : 5
Format                                   : VobSub
Muxing mode                              : zlib
Codec ID                                 : S_VOBSUB
Codec ID/Info                            : The same subtitle format used on DVDs
Language                                 : Spanish
Default                                  : No
Forced                                   : No

Text #4
ID                                       : 6
Format                                   : VobSub
Muxing mode                              : zlib
Codec ID                                 : S_VOBSUB
Codec ID/Info                            : The same subtitle format used on DVDs
Language                                 : Portuguese
Default                                  : No
Forced                                   : No

Text #5
ID                                       : 7
Format                                   : VobSub
Muxing mode                              : zlib
Codec ID                                 : S_VOBSUB
Codec ID/Info                            : The same subtitle format used on DVDs
Language                                 : Polish
Default                                  : No
Forced                                   : No

Menu
00:00:00.000                             : en:(01)00:00:00:000
00:20:33.832                             : en:(02)00:20:33:832
Код: выделить все

General
Unique ID                                : 215115586495468076412608786542450866560 (0xA1D5C144A3B1175F8B3626556F427980)
Complete name                            : J:\Мистер Бин Фильм-катастрофа = Bean (1997) BDRip 1080p [NNM-Club]\Bean.(1997).Exclusive.mkv
Format                                   : Matroska
Format version                           : Version 2
File size                                : 67.7 MiB
Duration                                 : 3mn 46s
Overall bit rate                         : 2 512 Kbps
Movie name                               : Мистер Бин.Фильм-катастрофа. Bean.(1997).Blu-ray.Title800.BlurayRip
Encoded date                             : UTC 2011-12-21 02:54:26
Writing application                      : mkvmerge v5.0.0 ('Die Wahre Liebe') built on Sep 25 2011 20:33:49
Writing library                          : libebml v1.2.2 + libmatroska v1.3.0

Video
ID                                       : 1
Format                                   : AVC
Format/Info                              : Advanced Video Codec
Format profile                           : High@L5.1
Format settings, CABAC                   : Yes
Format settings, ReFrames                : 2 frames
Format settings, GOP                     : M=3, N=22
Muxing mode                              : Header stripping
Codec ID                                 : V_MPEG4/ISO/AVC
Bit rate                                 : 2 270 Kbps
Width                                    : 624 pixels
Height                                   : 362 pixels
Display aspect ratio                     : 1.724
Frame rate mode                          : Variable
Original frame rate                      : 29.970 fps
Color space                              : YUV
Chroma subsampling                       : 4:2:0
Bit depth                                : 8 bits
Scan type                                : Progressive
Writing library                          : x264 core
Language                                 : English
Default                                  : Yes
Forced                                   : No
Color primaries                          : BT.601 NTSC
Transfer characteristics                 : BT.709
Matrix coefficients                      : BT.601

Audio
ID                                       : 2
Format                                   : AC-3
Format/Info                              : Audio Coding 3
Mode extension                           : CM (complete main)
Format settings, Endianness              : Big
Muxing mode                              : Header stripping
Codec ID                                 : A_AC3
Duration                                 : 3mn 46s
Bit rate mode                            : Constant
Bit rate                                 : 192 Kbps
Channel(s)                               : 2 channels
Channel positions                        : Front: L R
Sampling rate                            : 48.0 KHz
Bit depth                                : 16 bits
Compression mode                         : Lossy
Stream size                              : 5.17 MiB (8%)
Language                                 : English
Default                                  : Yes
Forced                                   : No

Text #1
ID                                       : 3
Format                                   : VobSub
Muxing mode                              : zlib
Codec ID                                 : S_VOBSUB
Codec ID/Info                            : The same subtitle format used on DVDs
Language                                 : English
Default                                  : No
Forced                                   : No

Text #2
ID                                       : 4
Format                                   : VobSub
Muxing mode                              : zlib
Codec ID                                 : S_VOBSUB
Codec ID/Info                            : The same subtitle format used on DVDs
Language                                 : Russian
Default                                  : Yes
Forced                                   : No

Text #3
ID                                       : 5
Format                                   : VobSub
Muxing mode                              : zlib
Codec ID                                 : S_VOBSUB
Codec ID/Info                            : The same subtitle format used on DVDs
Language                                 : Spanish
Default                                  : No
Forced                                   : No

Text #4
ID                                       : 6
Format                                   : VobSub
Muxing mode                              : zlib
Codec ID                                 : S_VOBSUB
Codec ID/Info                            : The same subtitle format used on DVDs
Language                                 : Portuguese
Default                                  : No
Forced                                   : No

Text #5
ID                                       : 7
Format                                   : VobSub
Muxing mode                              : zlib
Codec ID                                 : S_VOBSUB
Codec ID/Info                            : The same subtitle format used on DVDs
Language                                 : Polish
Default                                  : No
Forced                                   : No

Menu
00:00:00.000                             : en:(01)00:00:00:000
00:03:47.026                             : en:(02)00:03:47:026
Скриншоты:



Время раздачи:24/7
Не откажусь от !!!
Bean.(1997).BDRip.1080p.[NNM-Club].torrent
 Торрент: Платиновая раздача  Зарегистрирован
 
Скачать


Примагнититься
 Зарегистрирован:   04 Дек 2018 14:21:32
 Размер:   9,98 GB  (
 Рейтинг:   4,6 (Голосов: 122)
 Поблагодарили:   367
 Проверка:   Оформление проверено модератором 05 Дек 2018 04:05:49
Как cкачать  ·  Как раздать  ·  Правильно оформить  ·  Поднять ратио!  
nssoft96
Стаж: 7 лет 1 мес.
Сообщений: 3
Ratio: 100,09
100%
Спасибо огромное за релиз! Премного благодарен!
Katran9
Стаж: 7 лет 11 мес.
Сообщений: 193
Ratio: 3,998
100%
russia.gif
Шикарно смешной фильм!!))
moder69
Стаж: 9 лет 4 мес.
Сообщений: 2277
Ratio: 84,177
Поблагодарили: 85390
100%
Откуда: Варна
bulgaria.gif
Спасибо конечно,но дурачка-иуду этого никогда не смотрел,ему на заводе надо вкалывать,а не рожу корчить..!
Windjammer
Стаж: 9 лет 3 мес.
Сообщений: 646
Ratio: 2,494
Поблагодарили: 3
100%
ukraine.gif
moder69 писал(а): Перейти к сообщению
Спасибо конечно,но дурачка-иуду этого никогда не смотрел,ему на заводе надо вкалывать,а не рожу корчить..!


Так вы и не смотрите далее.
circassians.
Стаж: 7 лет 10 мес.
Сообщений: 19
Ratio: 11,845
91.03%
Спасибо большое =)

_________________
sop1810
Стаж: 9 лет 2 мес.
Сообщений: 719
Ratio: 3,462
Поблагодарили: 340
100%
Откуда: Моя Родина - СССР.
ussr.gif
Не знаю, кому нравится   корченье рож. :( Если это юмор и комедия, то для одноклеточных :( Чем сильнее скорчил рожу и выпучил глаза - тем смешнее ?! Короче, фильмец не понравился сильно. Но в любом случае автору спасибо большое.

_________________
Сам себе режиссер...
StrunetsAF63
Стаж: 9 лет 6 мес.
Сообщений: 892
Ratio: 102,283
Поблагодарили: 406
100%
ussr.gif
sop1810
Ета такой их "тонкий" английский юмор, ну ишо пирог в морду обязательно... Задорнов покойный правильно про них говорил ))))

_________________
Рождённый в СССР!
Ugo927
Стаж: 7 лет 6 мес.
Сообщений: 251
Ratio: 0,802
100%
moder69 писал(а): Перейти к сообщению
Спасибо конечно,но дурачка-иуду этого никогда не смотрел,ему на заводе надо вкалывать,а не рожу корчить..!

Если фраза "дурачка этого" может характеризовать Эткинсона.
То фраза "дурачка-иуду этого" характеризует автора этой фразы.
firstlast2

Online
Стаж: 7 лет 2 мес.
Сообщений: 716
Ratio: 6,714
Раздал: 3,955 TB
Поблагодарили: 6543
100%
Откуда: Kiev region
ukraine.gif
Пантомимика и мимика - это средство донесения информации, в первую очередь - эмоций. Если бы главный герой (Роуэн Эткинсон) в комичных ситуациях этого фильма не сопровождал свои действия и реакции на действия других людей своей фантастической пластикой лица и талантом - фильм не был бы таким ярким и неповторимым. Тонкий юмор это не для всех. Также таких одаренных комиков как Роуэн на весь мир не много.
dvv06
Стаж: 9 лет 8 мес.
Сообщений: 131
Ratio: 1,284
36.35%
ukraine.gif
мой любимый комик ) жаль что постарел и больше не снимался в подобном
Показать сообщения:   
Начать новую тему   Ответить на тему    Торрент-трекер NNM-Club -> Зарубежное кино -> Зарубежные Фильмы (HD, UHD-LQ) Часовой пояс: GMT + 3
Страница 1 из 1