Классический форум-трекер
canvas not supported
Нас вместе: 4 094 174

Утиные Истории. ТехноДак / DuckTales. Full Metal Duck (1987) SATRip


 
 
RSS
Начать новую тему   Ответить на тему    Торрент-трекер NNM-Club -> Мультфильмы -> Зарубежные Мультфильмы для детей
Автор Сообщение
Карен-Мик​аэлович​ ®
Стаж: 8 лет 1 мес.
Сообщений: 819
Ratio: 191,48
Поблагодарили: 46892
100%
Откуда: Харьков
ukraine.gif
Утиные Истории. ТехноДак / DuckTales. Full Metal Duck (1987) SATRip
Русское название: Утиные Истории. ТехноДак
Оригинальное название: DuckTales. Full Metal Duck
Год выпуска: 1987
Жанр: Комедия, Детский
Перевод: Профессиональный (полное дублирование) (Нева-Фильм)
Режиссер: Фред Вольф

Описание фильма:
Братья Гавс вламываются в офис мэрии и меняют маршрут прокладки новой Автомагистрали. Теперь трасса проходит через деньго-хранилище Скруджа МакДака. В кратчайщие сроки Скрудж должен перенести хранилище в другое место. В этом ему помогает его новый бухгалтер Фэнтон. Этот придурковатый новоиспеченный бухгалтер, закончивший ускоренные курсы попадает в такие передряги с деньгами Скруджа что и не снилось...

Продолжительность: 01:40:22
Качество видео: SATRip

Видеокодек: Xvid
Битрейт видео: ~1883 Кбит/сек
Размер кадра: 704х544
Аудиокодек: AC3 2.0
Битрейт аудио: 192 Кбит/сек, 48,0 КГц
Формат : AVI
Формат/Информация : Audio Video Interleave
Размер файла : 1,46 Гбайт
Продолжительность : 1 ч. 40 м.
Общий поток : 2085 Кбит/сек
Программа кодирования : VirtualDubMod 1.5.10.2 (build 2540/release)
Библиотека кодирования : VirtualDubMod build 2540/release

Видео
Идентификатор : 0
Формат : MPEG-4 Visual
Профиль формата : Advanced Simple@L5
Параметр BVOP формата : 1
Параметр QPel формата : Нет
Параметр GMC формата : Без точки перехода
Параметр матрицы формата : Default (MPEG)
Идентификатор кодека : XVID
Идентификатор кодека/Подсказка : XviD
Продолжительность : 1 ч. 40 м.
Битрейт : 1883 Кбит/сек
Ширина : 704 пикселя
Высота : 544 пикселя
Соотношение сторон : 1,294
Частота кадров : 25,000 кадров/сек
Цветовое пространство : YUV
Субдискретизация насыщенности : 4:2:0
Битовая глубина : 8 бит
Тип развёртки : Прогрессивная
Метод сжатия : С потерями
Бит/(Пиксели*Кадры) : 0.197
Размер потока : 1,32 Гбайт (90%)
Библиотека кодирования : XviD 1.2.1 (UTC 2008-12-04)

Аудио
Идентификатор : 1
Формат : AC-3
Формат/Информация : Audio Coding 3
Расширение режима : CM (complete main)
Параметр Endianness формата : Big
Идентификатор кодека : 2000
Продолжительность : 1 ч. 40 м.
Вид битрейта : Постоянный
Битрейт : 192 Кбит/сек
Каналы : 2 канала
Расположение каналов : Front: L R
Частота : 48,0 КГц
Битовая глубина : 16 бит
Метод сжатия : С потерями
Размер потока : 138 Мбайт (9%)
Выравнивание : Соединение по промежуткам
Продолжительность промежутка : 40 мс. (1,00 видеокадр)
Время предзагрузки промежутка : 512 мс.
Скриншоты:

RiP By Chu-pa
Приятного просмотра
и не забываем говорить СПАСИБО...


Время раздачи: 24/7 (По возможности)
[NNM-Club.ru]_Utinnyie Istorii.TehnoDak.avi.torrent
 Торрент: Платиновая раздача  Зарегистрирован
 
Скачать


Примагнититься
 Зарегистрирован:   16 Сен 2012 20:34:18
 Размер:   1,46 GB  (
 Рейтинг:   4,9 (Голосов: 83)
 Поблагодарили:   275
 Проверка:   Оформление проверено модератором 16 Сен 2012 20:35:53
Как cкачать  ·  Как раздать  ·  Правильно оформить  ·  Поднять ратио!  
zzzRevanzzz
Стаж: 8 лет 11 мес.
Сообщений: 351
Ratio: 2,591
Поблагодарили: 53
100%
russia.gif
Утиные - с одной "н"

_________________
denver7979
Зам. Куратора Детского.
Модератор Видео.
RG Всё лучшее - детям!
 
Стаж: 9 лет 2 мес.
Сообщений: 8137
Ratio: 551,819
Раздал: 37,82 TB
Поблагодарили: 327473
100%
Откуда: Земля
ussr.gif
zzzRevanzzz
Спасибо за бдительность =)

_________________
§ Основной FAQ & Все ПравилаНабор в RG NNM-Club Всё для детей, пап и мам
* Все вопросы в ☛ ЛС по вашим релизам ☣
обязательно со ссылками на темы, о которых идёт речь ☺
Ночной Лесник
Стаж: 9 лет 6 мес.
Сообщений: 35
Ratio: 10,821
2.87%
life is like a hurricane..

 !  Примечание от denver7979:
Запрещено:
2.12. Использовать в общении на форуме язык, отличный от литературного русского, и шрифт, отличный от кириллического (транслит); намеренно пренебрегать правилами русского языка, коверкать его и злоупотреблять сленгом.
Карен-Мик​аэлович​ ®
Стаж: 8 лет 1 мес.
Сообщений: 819
Ratio: 191,48
Поблагодарили: 46892
100%
Откуда: Харьков
ukraine.gif
Я даже внимание не обратил))))
safety_girl
Стаж: 7 лет 5 мес.
Сообщений: 15
100%
аааа.... спасибо за возможность вспомнить детство!!!! :супер!:
Показать сообщения:   
Начать новую тему   Ответить на тему    Торрент-трекер NNM-Club -> Мультфильмы -> Зарубежные Мультфильмы для детей Часовой пояс: GMT + 3
Страница 1 из 1