Классический форум-трекер
canvas not supported
Нас вместе: 4 093 212

Утиные Истории. Алмазный Остров / DuckTales. Diamond Island (1987) SATRip


 
 
RSS
Начать новую тему   Ответить на тему    Торрент-трекер NNM-Club -> Мультфильмы -> Зарубежные Мультсериалы
Автор Сообщение
Карен-Мик​аэлович​ ®
Стаж: 8 лет 1 мес.
Сообщений: 819
Ratio: 191,48
Поблагодарили: 46887
100%
Откуда: Харьков
ukraine.gif
Утиные Истории. Алмазный Остров / DuckTales. Diamond Island (1987) SATRip
Русское название: Утиные Истории. Алмазный Остров
Оригинальное название: DuckTales. Diamond Island
Год выпуска: 1987
Жанр: Детский, Приключения
Перевод: Профессиональный (полное дублирование) (Нева-Фильм)
Режиссер: Фред Вольф

Описание фильма:
Скрудж МакДак купил у своего завистника Глонгольда остров, внешне ничем не привлекательный, но как оказалось он содержит месторождение Алмазов. Узнав об этом Глонгольд прилагает все усилия чтобы помешать Скруджу. Взрывает часть острова и теперь у Скруджа лишь маленький островок на котором нет ничего. На счастье Винт Разболтайло изобрел машину времени и теперь Скруджу и его племянникам предстоит отправится в прошлое чтобы изменить свое будущее. Но как всегда все идет совсем не так как хотелось бы...
Продолжительность: 01:40:11
Качество видео: SATRip
Дополнительно: Список серий в сборнике(~20мин в среднем):
1. Duck Tales_The Duck who would be the king.avi
2. Duck Tales_Marking_time.avi
3. Duck Tales_Ducks on the lam.avi
4. Duck Tales_Bubba_Trubba.avi
5. Duck Tales_Al-Cubbas_cave.avi
Все серии объединены общим сюжетом(описание сюжета выше)
Видеокодек: Xvid
Битрейт видео: ~2188 Кбит/сек
Размер кадра: 720х552
Аудиокодек: AC3 2.0
Битрейт аудио: 192 Кбит/сек, 48,0 КГц
Формат : AVI
Формат/Информация : Audio Video Interleave
Размер файла : 1,67 Гбайт
Продолжительность : 1 ч. 40 м.
Общий поток : 2390 Кбит/сек
Программа кодирования : VirtualDubMod 1.5.10.2 (build 2540/release)
Библиотека кодирования : VirtualDubMod build 2540/release

Видео
Идентификатор : 0
Формат : MPEG-4 Visual
Профиль формата : Advanced Simple@L5
Параметр BVOP формата : 1
Параметр QPel формата : Нет
Параметр GMC формата : Без точки перехода
Параметр матрицы формата : Default (MPEG)
Идентификатор кодека : XVID
Идентификатор кодека/Подсказка : XviD
Продолжительность : 1 ч. 40 м.
Битрейт : 2188 Кбит/сек
Ширина : 720 пикселей
Высота : 552 пикселя
Соотношение сторон : 4:3
Частота кадров : 25,000 кадров/сек
Цветовое пространство : YUV
Субдискретизация насыщенности : 4:2:0
Битовая глубина : 8 бит
Тип развёртки : Прогрессивная
Метод сжатия : С потерями
Бит/(Пиксели*Кадры) : 0.220
Размер потока : 1,53 Гбайт (92%)
Библиотека кодирования : XviD 1.2.1 (UTC 2008-12-04)

Аудио
Идентификатор : 1
Формат : AC-3
Формат/Информация : Audio Coding 3
Расширение режима : CM (complete main)
Параметр Endianness формата : Big
Идентификатор кодека : 2000
Продолжительность : 1 ч. 40 м.
Вид битрейта : Постоянный
Битрейт : 192 Кбит/сек
Каналы : 2 канала
Расположение каналов : Front: L R
Частота : 48,0 КГц
Битовая глубина : 16 бит
Метод сжатия : С потерями
Размер потока : 138 Мбайт (8%)
Выравнивание : Соединение по промежуткам
Продолжительность промежутка : 40 мс. (1,00 видеокадр)
Время предзагрузки промежутка : 512 мс.
Скриншоты:

RiP By Chu-pa

Приятного просмотра
и не забываем говорить СПАСИБО...


Время раздачи: 24/7 (По возможности)
[NNM-Club.ru]_Utinnyie Istorii.Almaznyiy Ostrov.avi.torrent
 Торрент: Платиновая раздача  Зарегистрирован
 
Скачать


Примагнититься
 Зарегистрирован:   16 Сен 2012 22:12:05
 Размер:   1,67 GB  (
 Рейтинг:   4,9 (Голосов: 67)
 Поблагодарили:   258
 Проверка:   Оформление проверено модератором 16 Сен 2012 22:17:09
Как cкачать  ·  Как раздать  ·  Правильно оформить  ·  Поднять ратио!  
Димнон
Стаж: 9 лет 6 мес.
Сообщений: 591
Ratio: 8,184
Поблагодарили: 7790
100%
Откуда: www
russia.gif
Мой самый любимый сериал до сих пор. Вот всё же вспомнил этот мульт про остров.

_________________
Acer V3-771G, i7-3630QM, GT 730M, 1920X1080,16GB DDR3 128 SSD+1TB
Tareal_Diz
Стаж: 10 лет 4 мес.
Сообщений: 5
Ratio: 5,331
100%
спасибо
Карен-Мик​аэлович​ ®
Стаж: 8 лет 1 мес.
Сообщений: 819
Ratio: 191,48
Поблагодарили: 46887
100%
Откуда: Харьков
ukraine.gif
Ребята делаю все для вас)
Lis86
Модератор Книг
RG Книги
 
Стаж: 9 лет 8 мес.
Сообщений: 1106
Ratio: 11,651
Раздал: 1,28 TB
Поблагодарили: 8719
100%
Откуда: 51 RUS
russia.gif
Спасибо от моей семьи :приветствую:
m378
Стаж: 10 лет 8 мес.
Сообщений: 211
Ratio: 38,432
100%
ussr.gif
Как понимаю это по несколько серий?
Если да - а смысл выкладывать "сборники" по несколько серий, если тупо можно скачать все?
Карен-Мик​аэлович​ ®
Стаж: 8 лет 1 мес.
Сообщений: 819
Ratio: 191,48
Поблагодарили: 46887
100%
Откуда: Харьков
ukraine.gif
Это полная серия не 20минутка.
rmyshkin
Стаж: 8 лет 8 мес.
Сообщений: 300
Ratio: 28,956
Поблагодарили: 1227
100%
Откуда: Keniksberg
Chu-pa где другие утки???
Показать сообщения:   
Начать новую тему   Ответить на тему    Торрент-трекер NNM-Club -> Мультфильмы -> Зарубежные Мультсериалы Часовой пояс: GMT + 3
Страница 1 из 1