Классический форум-трекер
canvas not supported
Нас вместе: 4 094 986

Утинные Истории. Золотые Солнца / DuckTales: Gold Suns (1987) SATRip


 
 
RSS
Начать новую тему   Ответить на тему    Торрент-трекер NNM-Club -> Мультфильмы -> Зарубежные Мультсериалы
Автор Сообщение
Карен-Мик​аэлович​ ®
Стаж: 8 лет 1 мес.
Сообщений: 819
Ratio: 191,48
Поблагодарили: 46897
100%
Откуда: Харьков
ukraine.gif
Утинные Истории. Золотые Солнца / DuckTales: Gold Suns (1987) SATRip
Русское название: Утинные Истории. Золотые Солнца
Оригинальное название: DuckTales: Gold Suns
Год выпуска: 1987
Жанр: Детский, Приключения
Перевод: Профессиональный (Полное дублирование) (Нева-Фильм)
Режиссер: Фред Вольф

Описание фильма:
Дональд Дак оставляет своему дяде Скруджу, самому богатому селезню в мире своих племянников, пока он будет проходить службу на флоте. Племянники-Дилли, Вилли, Билли очень умные утята и везде суют свой клюв в неизведанное. Так они узнают что старинный макет корабля в музее Скруджа Макдака это Карта, где запрятан клад старинных Золотых монет Солнц. С этого и начинаются безумные приключения Скруджа и его племянников.
Качество видео: SATRip
Дополнительно: Рип сделал с DVD, изготовленного из SATRip-а
Это пять серий объеденные в один большой мульт, так сказать (серии с продолжением) под названием "ЗОЛОТЫЕ СОЛНЦА". Ибо все пять серий Скрудж МакДак гоняется по миру в поисках древнего клада "Золотых Солнц".
01. Не сдавать Корабль
02. Нет дороги трудней, чем дорога в Ронгуэй
03. Трое и Кондор
04. Утки во льдах
05. И Золото хорошо в Меру


Продолжительность: 01:48:16
Видеокодек: Xvid
Битрейт видео: ~2298 Кбит/сек
Размер кадра: 720х552
Аудиокодек: AC3 2.0
Битрейт аудио: 384 Кбит/сек, 48,0 КГц
Формат : AVI
Формат/Информация : Audio Video Interleave
Профиль формата : OpenDML
Размер файла : 2,04 Гбайт
Продолжительность : 1 ч. 48 м.
Общий поток : 2695 Кбит/сек
Программа кодирования : VirtualDubMod 1.5.10.2 (build 2540/release)
Библиотека кодирования : VirtualDubMod build 2540/release

Видео
Идентификатор : 0
Формат : MPEG-4 Visual
Профиль формата : Advanced Simple@L5
Параметр BVOP формата : 1
Параметр QPel формата : Нет
Параметр GMC формата : Без точки перехода
Параметр матрицы формата : Default (MPEG)
Идентификатор кодека : XVID
Идентификатор кодека/Подсказка : XviD
Продолжительность : 1 ч. 48 м.
Битрейт : 2298 Кбит/сек
Ширина : 720 пикселей
Высота : 552 пикселя
Соотношение сторон : 4:3
Частота кадров : 25,000 кадров/сек
Цветовое пространство : YUV
Субдискретизация насыщенности : 4:2:0
Битовая глубина : 8 бит
Тип развёртки : Прогрессивная
Метод сжатия : С потерями
Бит/(Пиксели*Кадры) : 0.231
Размер потока : 1,74 Гбайт (85%)
Библиотека кодирования : XviD 1.2.1 (UTC 2008-12-04)

Аудио
Идентификатор : 1
Формат : AC-3
Формат/Информация : Audio Coding 3
Расширение режима : CM (complete main)
Параметр Endianness формата : Big
Идентификатор кодека : 2000
Продолжительность : 1 ч. 48 м.
Вид битрейта : Постоянный
Битрейт : 384 Кбит/сек
Каналы : 2 канала
Расположение каналов : Front: L R
Частота : 48,0 КГц
Битовая глубина : 16 бит
Метод сжатия : С потерями
Размер потока : 297 Мбайт (14%)
Выравнивание : Соединение по промежуткам
Продолжительность промежутка : 40 мс. (1,00 видеокадр)
Время предзагрузки промежутка : 512 мс.
Скриншоты:

RiP By Chu-pa

Приятного просмотра
и не забываем говорить СПАСИБО...


Время раздачи: 24/7 (По возможности)
[NNM-Club.ru]_Utinnyie Istorii.Zolotyie Solntsa.avi.torrent
 Торрент: Платиновая раздача  Зарегистрирован
 
Скачать


Примагнититься
 Зарегистрирован:   17 Сен 2012 00:54:36
 Размер:   2,04 GB  (
 Рейтинг:   5 (Голосов: 57)
 Поблагодарили:   146
 Проверка:   Оформление проверено модератором 17 Сен 2012 12:38:22
Как cкачать  ·  Как раздать  ·  Правильно оформить  ·  Поднять ратио!  
desz
Стаж: 9 лет
Сообщений: 312
Ratio: 2,155
17.82%
Откуда: Реальность
pirates.png
Спасибо! Было бы интересно увидеть когда то римейк, на этот чудесный мультфильм, с которым у каждого есть часть своего детства.
Lis86
Модератор Книг
RG Книги
 
Стаж: 9 лет 9 мес.
Сообщений: 1106
Ratio: 11,588
Раздал: 1,28 TB
Поблагодарили: 8721
100%
Откуда: 51 RUS
russia.gif
Спасибо за релиз.Просмотрели не один раз с семьей.Дочка тоже осталась довольна.
Спасибо огромное от всей моей семьи :приветствую: :приветствую: :приветствую:
JJKey
Стаж: 10 лет
Сообщений: 10
Ratio: 2,553
28.57%
russia.gif
Разве Нева передублировала первые пять серий?
P.S. Жаль не оригинальная полнометражка :(
Показать сообщения:   
Начать новую тему   Ответить на тему    Торрент-трекер NNM-Club -> Мультфильмы -> Зарубежные Мультсериалы Часовой пояс: GMT + 3
Страница 1 из 1