Классический форум-трекер
canvas not supported
Нас вместе: 4 093 447

Плохой парень / Bad Boy / Dawg (2002) DVD5


 
 
RSS
Начать новую тему   Ответить на тему    Торрент-трекер NNM-Club -> Зарубежное кино -> Зарубежные Фильмы (DVD)
Автор Сообщение
SKVSM ®
Покровитель талантов
Uploader 100+
 
Стаж: 9 лет 4 мес.
Сообщений: 1083
Ratio: 297,799
Поблагодарили: 21431
100%
nnm-club.gif
Плохой парень / Bad Boy / Dawg (2002) DVD5
Производство: США
Жанр: Драма, Мелодрама, Комедия

Описание:
Наглый и бесшабашный бабник Даг так увлекся своей очередной пассией, что опоздал на похороны родной бабушки. Тем не менее бабушка оставила ему целый миллион долларов! Однако любимый внук получит его, только если вымолит прощение у несчастных девиц, которых он беззастенчиво обольстил и бросил. Ради такого богатства Дат готов совершить великий подвиг, хотя он и чувствует, что пережить это незапланированное романтическое приключение ему будет очень непросто!

Режиссер: Виктория Хокберг
Актеры: Дэнис Лири, Элизабет Херли, Николь Робинсон, Миа Коттет, Джулия Мерфи, Элизабет Росса, Элис Эмтер, Энни Сорелл, Алисия Лорен, Ванесса Белл Кэллоуэй...

Продолжительность: 01:20:02
Перевод: Многоголосый закадровый
Субтитры: Нет



Дата мировой премьеры: 21 февраля 2002

Видеокодек: MPEG-2
Битрейт видео: ~ 5183 kbps
Размер кадра: PAL 4:3 (720x576) VBR
Качество видео: DVD5
Аудиокодек: AC3
Битрейт аудио:
#1: AC3, 3/2 (L,C,R,SL,SR)+LFE ch, 448 kbps (Русский)
#2: AC3, 3/2 (L,C,R,SL,SR)+LFE ch, 448 kbps (Английский)

Скриншоты:

Каталог:


Смотрите на DVD:
Title: Ploxoi.paren.2002.DVD-5
Size: 3.92 Gb ( 4 107 173,00 KBytes ) - DVD-5
Enabled regions: 1, 2, 3, 4, 5, 6

VTS_01 :
Play Length: 00:00:05
Video: PAL 4:3 (720x576) VBR

VTS_02 :
Play Length: 00:00:11
Video: PAL 4:3 (720x576) VBR
Audio:
Not specified (Dolby AC3, 6 ch)
Not specified (Dolby AC3, 6 ch)
Not specified (Dolby AC3, 6 ch)
Subtitles:
Not specified

VTS_03 :
Play Length: 01:20:02
Video: PAL 4:3 (720x576) VBR
Audio:
Russian (Dolby AC3, 6 ch)
English (Dolby AC3, 6 ch)

VTS_04 :
Play Length: 00:01:33
Video: PAL 4:3 (720x576) VBR
Audio:
Not specified (Dolby AC3, 2 ch)
Subtitles:
Not specified

VTS_05 :
Play Length: 00:02:15
Video: PAL 4:3 (720x576) VBR
Audio:
Not specified (Dolby AC3, 2 ch)
Subtitles:
Not specified

VTS_06 :
Play Length: 00:01:35
Video: PAL 16:9 (720x576) VBR, Auto Letterboxed
Audio:
Not specified (Dolby AC3, 2 ch)
Subtitles:
Not specified

VTS_07 :
Play Length: 00:01:57
Video: PAL 4:3 (720x576) VBR
Audio:
Not specified (Dolby AC3, 2 ch)
Subtitles:
Not specified
General
Complete name : F:\ФИЛЬМЫ-КОЛЛЕКЦИЯ\П-П\Ploxoi.paren.2002.DVD-5\VIDEO_TS\VTS_03_1.VOB
Format : MPEG-PS
File size : 1 024 MiB
Duration : 23mn 4s
Overall bit rate mode : Variable
Overall bit rate : 6 203 Kbps

Video
ID : 224 (0xE0)
Format : MPEG Video
Format version : Version 2
Format profile : Main@Main
Format settings, BVOP : Yes
Format settings, Matrix : Custom
Format settings, GOP : M=3, N=15
Duration : 23mn 4s
Bit rate mode : Variable
Bit rate : 5 183 Kbps
Maximum bit rate : 8 000 Kbps
Width : 720 pixels
Height : 576 pixels
Display aspect ratio : 4:3
Frame rate : 25.000 fps
Standard : PAL
Color space : YUV
Chroma subsampling : 4:2:0
Bit depth : 8 bits
Scan type : Interlaced
Scan order : Top Field First
Compression mode : Lossy
Bits/(Pixel*Frame) : 0.500
Stream size : 856 MiB (84%)

Audio #1
ID : 189 (0xBD)-128 (0x80)
Format : AC-3
Format/Info : Audio Coding 3
Mode extension : CM (complete main)
Format settings, Endianness : Big
Muxing mode : DVD-Video
Duration : 23mn 4s
Bit rate mode : Constant
Bit rate : 448 Kbps
Channel(s) : 6 channels
Channel positions : Front: L C R, Side: L R, LFE
Sampling rate : 48.0 KHz
Bit depth : 16 bits
Compression mode : Lossy
Delay relative to video : -80ms
Stream size : 73.9 MiB (7%)

Audio #2
ID : 189 (0xBD)-129 (0x81)
Format : AC-3
Format/Info : Audio Coding 3
Mode extension : CM (complete main)
Format settings, Endianness : Big
Muxing mode : DVD-Video
Duration : 23mn 4s
Bit rate mode : Constant
Bit rate : 448 Kbps
Channel(s) : 6 channels
Channel positions : Front: L C R, Side: L R, LFE
Sampling rate : 48.0 KHz
Bit depth : 16 bits
Compression mode : Lossy
Delay relative to video : -80ms
Stream size : 73.9 MiB (7%)

Menu
Время раздачи: 24/7 - круглосуточно
[NNM-Club.ru]_Ploxoi.paren.2002.DVD-5.torrent
 Торрент: Платиновая раздача  Зарегистрирован
 
Скачать


Примагнититься
 Зарегистрирован:   17 Ноя 2019 15:53:22
 Размер:   3,92 GB  (
 Рейтинг:   4,7 (Голосов: 21)
 Поблагодарили:   92
 Проверка:   Оформление проверено модератором 17 Ноя 2019 19:39:11
Как cкачать  ·  Как раздать  ·  Правильно оформить  ·  Поднять ратио!  
zogi
Стаж: 10 лет 7 мес.
Сообщений: 34
Ratio: 1,206
Поблагодарили: 37
100%
Откуда: Стерлитамак
russia.gif
Приятный фильм! Спасибо.
buff
Стаж: 7 лет 10 мес.
Сообщений: 6
Ratio: 18,283
100%
Здравствуйте, спасибо за это кино.
Дайте, пожалуйста, докачать, всего 314 Мб осталось. Но абсолютно не идёт уже очень, очень долго.
NorthOn
 
Админ
Стаж: 13 лет 6 мес.
Сообщений: 13306
Ratio: 1096,308
Поблагодарили: 14450
100%
nnm-club.gif
Торрент обновлен в рамках акции Включаем DHT в древних раздачах
Теперь вам нужно его скачать и открыть в торрент-клиенте, указав в качестве места сохранения раздаваемый файл или папку.

_________________
Либо я найду путь, либо проложу его...
bsv555
Стаж: 7 лет
Сообщений: 177
Ratio: 40,583
100%
А не кто не знает, ищу похожий фильм, там парень ездит по бывшим девушкам и при этом классно готовит, увы плохо помню детали фильма, лишь то что он там на лампе яичницу вроде жарил и то что фильм иностранный.
Показать сообщения:   
Начать новую тему   Ответить на тему    Торрент-трекер NNM-Club -> Зарубежное кино -> Зарубежные Фильмы (DVD) Часовой пояс: GMT + 3
Страница 1 из 1