Классический форум-трекер
canvas not supported
Нас вместе: 4 079 055

Наркомовский обоз (2011) [H.264] DVDRip [4 серии из 4]


 
 
RSS
Начать новую тему   Ответить на тему    Торрент-трекер NNM-Club -> Отечественные сериалы
Автор Сообщение
Alic163 ®
Стаж: 7 лет 6 мес.
Сообщений: 87
Ratio: 19,528
Поблагодарили: 6420
100%
armenia.gif
Наркомовский обоз (2011) [H.264] DVDRip [4 серии из 4]
Русское название: Наркомовский обоз
Год выпуска: 2011
Жанр: Военный, Драма, Приключения

Дата российской премьеры: 10 мая 2011
Дата выхода DVD/Blu-Ray релиза: 16 августа 2011

Режиссер: Марлен Хуциев, Феликс Миронер
Актеры: Сергей Маховиков, Ольга Фадеева, Анна Арланова, Дарья Баранова, Юлия Полубинская, Ирина Рахманова, Анатолий Петров, Михаил Долгополов (II), Максим Селяво, Владислав Буланов, Ричард Бондарев, Виталий Котовицкий, Владимир Стеклов, Сергей Прокопич, Сергей Власов (IV), Виктор Молчан, Кирилл Новицкий, Вячеслав Павлють

Описание фильма:
Осень 1941 года. Только что вышло постановление Комитета Обороны о водочном довольствии для действующей армии.
Старшина Филиппов получает задание: впервые доставить в стрелковую дивизию те самые знаменитые «100 наркомовских грамм». В помощники ему дают 4 девушки-красноармейца, местного старика-проводника Архипа и его внука-подростка Митю. Погрузив на телеги тару, обоз трогается в путь. За несколько часов этой, казалось бы, рутинной тыловой поездки всем им предстоит пройти настоящие военные испытания: не единожды вступить бой, стать свидетелями высокой доблести и подлой трусости, узнать любовь и ревность.Весёлое кокетство девушек со своим старшиной заканчивается уже при первой серьёзной бомбёжке. Одна из девушек, Тамара, до войны была невестой Филиппова, и теперь она очень переживает, что старшина совсем не обращает на неё внимания. Кругом поток беженцев. Некий исполкомовец для спасения районного архива пытается с пистолетом в руках реквизировать у интендантовского обоза их гужевой транспорт. Филиппов чисто по-мужски ставит его на место. Следом к их обозу прибивается политрук Хомяков и пытается всеми командовать. Старшина едва сдерживает себя. Ему на помощь приходят девушки, дружно высмеивая амбициозного политрука.
Никто из обозников ещё не знает, что впереди на дороге прорвавшиеся немецкие мотоциклисты. Старшина Филиппов в прошлом кадровый боевой офицер, успевший как следует понюхать пороху. В столкновении с мотоциклистами он проявляет себя как мужественный умелый воин. Чего не скажешь о политруке Хомякове, откровенном трусе. На пути у обоза контора леспромхоза, которую час назад захватили ради простого грабежа трое бандитов. Открыв стрельбу, они убивают деда Архипа. Филиппов вместе с девушками сражается с ними. Хомяков же ведёт себя уже не только как трус, но и как подлец, подставляя вместо себя под пули простоватую Прасковью. Вскоре им встречаются двое опытных фронтовых разведчика, бывших сослуживцев Филиппова. На небольшой стоянке девушки как будто оживают, им нравится ухаживание бравых офицеров, а между Симой и лейтенантом Верстовым вспыхивает настоящее чувство.

Продолжительность: 03:17:12
Качество видео: DVDRip

Видеокодек: MPEG-4 AVC/H.264
Битрейт видео: ~1966 kbps avg, 0.19 bit/pixel
Размер кадра: 1024x576
Аудиокодек: AAC, 2 канала
Битрейт аудио: 162 kb/s

Ранее аналогичные релизы

MediaInfo:
Общее
Полное имя : D:\ РАЗДАЧА\Наркомовский обоз\Наркомовский обоз..mp4
Формат : MPEG-4
Профиль формата : Base Media
Идентификатор кодека : isom
Размер файла : 2,94 Гбайт
Продолжительность : 3 ч. 17 м.
Режим общего битрейта : Переменный
Общий поток : 2132 Кбит/сек
Название фильма : DVDRip by Barmoley #South Korea#
Программа кодирования : Lavf53.6.0

Видео
Идентификатор : 1
Формат : AVC
Формат/Информация : Advanced Video Codec
Профиль формата : High@L4.1
Параметр CABAC формата : Да
Параметр ReFrames формата : 8 кадров
Идентификатор кодека : avc1
Идентификатор кодека/Информация : Advanced Video Coding
Продолжительность : 3 ч. 17 м.
Битрейт : 1966 Кбит/сек
Ширина : 720 пикселей
Высота : 576 пикселей
Соотношение сторон : 16:9
Режим частоты кадров : Постоянный
Частота кадров : 25,000 кадров/сек
Стандарт вещания : PAL
Цветовое пространство : YUV
Субдискретизация насыщенности : 4:2:0
Битовая глубина : 8 бит
Тип развёртки : Прогрессивная
Бит/(Пиксели*Кадры) : 0.190
Размер потока : 2,71 Гбайт (92%)
Библиотека кодирования : x264 core 116 r2019 9cc407d
Настройки программы : cabac=1 / ref=8 / deblock=1:0:0 / analyse=0x3:0x133 / me=umh / subme=7 / psy=1 / psy_rd=1.00:0.00 / mixed_ref=1 / me_range=16 / chroma_me=1 / trellis=2 / 8x8dct=1 / cqm=0 / deadzone=21,11 / fast_pskip=0 / chroma_qp_offset=-2 / threads=3 / sliced_threads=0 / nr=0 / decimate=0 / interlaced=0 / bluray_compat=0 / constrained_intra=0 / bframes=3 / b_pyramid=2 / b_adapt=2 / b_bias=0 / direct=3 / weightb=1 / open_gop=0 / weightp=2 / keyint=250 / keyint_min=25 / scenecut=40 / intra_refresh=0 / rc_lookahead=50 / rc=2pass / mbtree=1 / bitrate=1966 / ratetol=1.0 / qcomp=0.80 / qpmin=0 / qpmax=69 / qpstep=4 / cplxblur=20.0 / qblur=0.5 / ip_ratio=1.40 / aq=1:1.00

Аудио
Идентификатор : 2
Формат : AAC
Формат/Информация : Advanced Audio Codec
Профиль формата : LC
Идентификатор кодека : 40
Продолжительность : 3 ч. 17 м.
Вид битрейта : Переменный
Битрейт : 162 Кбит/сек
Максимальный битрейт : 173 Кбит/сек
Каналы : 2 канала
Расположение каналов : Front: L R
Частота : 48,0 КГц
Метод сжатия : С потерями
Размер потока : 229 Мбайт (8%)
Скриншоты:

Время раздачи: 09:00 до 23:00 по мере возможности
[NNM-Club.ru]_Narkomovskiy oboz..mp4.torrent
 Торрент: Платиновая раздача  Зарегистрирован
 
Скачать


 Зарегистрирован:   24 Сен 2012 18:28:19
 Размер:   2,94 GB  (
 Рейтинг:   4,7 (Голосов: 78)
 Поблагодарили:   318
 Проверка:   Оформление проверено модератором 25 Сен 2012 09:03:26
Как cкачать  ·  Как раздать  ·  Правильно оформить  ·  Поднять ратио!  
Загрузка...
wadimus
Стаж: 10 лет 6 мес.
Сообщений: 5571
Ratio: 7,41
Поблагодарили: 165
100%
Откуда: Красноярск
russia.gif
Виктор813
Стаж: 7 лет 4 мес.
Сообщений: 6
Ratio: 47,012
Раздал: 709 GB
100%
Откуда: Барнаул
ussr.gif
Во многом согласен с критикой wadimus. Разучились снимать фильмы о войне, шедевров давно уже нет. А представленный здесь сериал - всего лишь хорошая, и не более того, поделка. Один раз можно посмотреть, и всё. "А зори здесь тихие" я пересматривал минимум раз семь, и ещё посмотрю по возможности.
Kypava
Стаж: 9 лет 6 мес.
Сообщений: 35
Ratio: 2,453
100%
russia.gif
Я смотрю много военных фильмов, сериалов, и этот мне понравился. Так что автору раздачи благодарность!
Показать сообщения:   
Начать новую тему   Ответить на тему    Торрент-трекер NNM-Club -> Отечественные сериалы Часовой пояс: GMT + 3
Страница 1 из 1