Классический форум-трекер
canvas not supported
Нас вместе: 4 114 182

Фантоцци уходит на пенсию / Fantozzi va in pensione (1988) DVDRip


 
 
RSS
Начать новую тему   Ответить на тему    Торрент-трекер NNM-Club -> Классика кино и Старые фильмы до 90-х -> Старые Зарубежные Фильмы (HD*Rip/LQ, DVDRip, SATRip, VHSRip)
Автор Сообщение
SKVSM ®
Покровитель талантов
Uploader 100+
 
Стаж: 9 лет 7 мес.
Сообщений: 1096
Ratio: 307,128
Поблагодарили: 21644
100%
nnm-club.gif
Фантоцци уходит на пенсию / Fantozzi va in pensione (1988) DVDRip
Русское название: Фантоцци уходит на пенсию
Оригинальное название: Fantozzi va in pensione
Год выпуска: 1988
Жанр: Комедия
Выпущено: Италия / Cecchi Gori Group Tiger Cinematografica

Описание фильма:
После 30-ти лет работы в Мегафирме Фантоцци уходит на пенсию. 30 лет рабства! Но оказывается, что пенсия - не освобождение. Она - лишь продолжение хлопот. Точнее - начало новых проблем. Дома Фантоцци сидеть не может, и он снова идет на работу, однако туда его уже не пропускают. Фантоцци решает придумать хобби - и заводит себе щенка. Через несколько считанных месяцев тот вырастает до гигантских размеров.

Режиссер: Нери Паренти
Актеры: Паоло Вилладжио, Милена Вукотич, Анна Маццамауро, Джиджи Редер, Плинио Фернандо, Антонио Алокка

Продолжительность: 01:34:36
Перевод: Многоголосый закадровый
Автор перевода: НТВ
Субтитры: Нет



Дата мировой премьеры: 22 декабря 1988

Видеокодек: Xvid
Битрейт видео: ~1803 Кбит/с
Размер кадра: 704x416
Качество видео: DVDRip
Аудиокодек: MP2, 2ch
Битрейт аудио: 256 Кбит/с
Сэмпл: Ссылка
General
Complete name : F:\Fantotsi.uhodit.na.pensiyu.1988.XviD.DVDRip.avi
Format : AVI
Format/Info : Audio Video Interleave
File size : 1.37 GiB
Duration : 1h 34mn
Overall bit rate : 2 068 Kbps
Writing application : VirtualDubMod 1.5.10.2 (build 2540/release)
Writing library : VirtualDubMod build 2540/release

Video
ID : 0
Format : MPEG-4 Visual
Format profile : Advanced Simple@L5
Format settings, BVOP : 2
Format settings, QPel : No
Format settings, GMC : No warppoints
Format settings, Matrix : Default (H.263)
Muxing mode : Packed bitstream
Codec ID : XVID
Codec ID/Hint : XviD
Duration : 1h 34mn
Bit rate : 1 803 Kbps
Width : 704 pixels
Height : 416 pixels
Display aspect ratio : 1.692
Frame rate : 25.000 fps
Color space : YUV
Chroma subsampling : 4:2:0
Bit depth : 8 bits
Scan type : Progressive
Compression mode : Lossy
Bits/(Pixel*Frame) : 0.246
Stream size : 1.19 GiB (87%)
Writing library : XviD 1.2.1 (UTC 2008-12-04)

Audio
ID : 1
Format : MPEG Audio
Format version : Version 1
Format profile : Layer 2
Codec ID : 50
Duration : 1h 34mn
Bit rate mode : Constant
Bit rate : 256 Kbps
Channel(s) : 2 channels
Sampling rate : 48.0 KHz
Compression mode : Lossy
Stream size : 173 MiB (12%)
Alignment : Aligned on interleaves
Interleave, duration : 40 ms (1.00 video frame)
Interleave, preload duration : 504 ms
Скриншоты:


Время раздачи: 24/7 - круглосуточно
[NNM-Club.ru]_Fantotsi.uhodit.na.pensiyu.1988.XviD.DVDRip.avi.torrent
 Торрент: Платиновая раздача  Зарегистрирован
 
Скачать


Примагнититься
 Зарегистрирован:   26 Сен 2012 17:22:37
 Размер:   1,37 GB  (
 Рейтинг:   4,9 (Голосов: 54)
 Поблагодарили:   182
 Проверка:   Оформление проверено модератором 27 Сен 2012 14:51:33
Как cкачать  ·  Как раздать  ·  Правильно оформить  ·  Поднять ратио!  
Xaero5
Стаж: 8 лет 3 мес.
Сообщений: 22
Ratio: 3,624
100%
Пупаци ! ты ли это !) афигенный фильм !
SKVSM ®
Покровитель талантов
Uploader 100+
 
Стаж: 9 лет 7 мес.
Сообщений: 1096
Ratio: 307,128
Поблагодарили: 21644
100%
nnm-club.gif
Diesel88
Стаж: 7 лет 5 мес.
Сообщений: 1604
Ratio: 21,012
100%
ussr.gif
Благодарю и за это хорошее,интересное кино.
Показать сообщения:   
Начать новую тему   Ответить на тему    Торрент-трекер NNM-Club -> Классика кино и Старые фильмы до 90-х -> Старые Зарубежные Фильмы (HD*Rip/LQ, DVDRip, SATRip, VHSRip) Часовой пояс: GMT + 3
Страница 1 из 1