Классический форум-трекер
canvas not supported
Нас вместе: 4 077 732

Ключи от неба (1964) DVDRip


 
 
RSS
Начать новую тему   Ответить на тему    Торрент-трекер NNM-Club -> Классика кино и Старые фильмы до 90-х -> Старые Отечественные Фильмы (HD*Rip/LQ, DVDRip, SATRip, VHSRip)
Автор Сообщение
nnmclub0112 ®
Стаж: 7 лет 8 мес.
Сообщений: 3888
Ratio: 97,871
Поблагодарили: 249357
100%
Ключи от неба (1964) DVDRip
Производство: Киностудия им. А.Довженко
Год выпуска: 1964
Жанр: Комедия

Описание фильма:
Столь популярная в свое время комедия . "Эй, рыбачок! Лодка нужна", - "Всем лодка нужна"... Фильм способен и сейчас поднять настроение, его с удовольствием посмотрят те, у кого он вызовет ностальгическую сладость. По сюжету в ракетной воинской части судьба сводит лейтенанта Кириллова, новобранца Лагоду, юную Полину и докторшу Анну. Остроумный, продуманный сценарий после множество комичных ситуаций, интриг и
недоразумений приводит героев к двум одновременным свадьбам.

Режиссер: Виктор Иванов
Актеры: Николай Рушковский, Александр Леньков, Валерий Бессараб, Вячеслав Воронин, Зоя Вихорева, Наталья Суровегина, Генрих Осташевский, Александр Гай, Андрей Гончар, Людмила Сосюра, Маргарита Кошелева, Анна Кушниренко, Владимир Волков.

Продолжительность: 01:12:59



Видеокодек: Xvid
Битрейт видео: ~1990 Kbps
Размер кадра: 720x544
Качество видео: DVDRip
Аудиокодек: AC3 2.0
Битрейт аудио: 224 kbps
Общее
Полное имя : G:\new 092012\Ключи от неба (1964) DVDRip\Kljuchi ot neba.avi
Формат : AVI
Формат/Информация : Audio Video Interleave
Размер файла : 1,13 Гбайт
Продолжительность : 1 ч. 12 м.
Общий поток : 2221 Кбит/сек
Программа кодирования : VirtualDubMod 1.5.4.1 (build 2178/release)
Библиотека кодирования : VirtualDubMod build 2178/release

Видео
Идентификатор : 0
Формат : MPEG-4 Visual
Профиль формата : Simple@L3
Параметр BVOP формата : 1
Параметр QPel формата : Нет
Параметр GMC формата : Без точки перехода
Параметр матрицы формата : Выборочная
Идентификатор кодека : XVID
Идентификатор кодека/Подсказка : XviD
Продолжительность : 1 ч. 12 м.
Битрейт : 1990 Кбит/сек
Ширина : 720 пикселей
Высота : 544 пикселя
Соотношение сторон : 4:3
Частота кадров : 25,000 кадров/сек
Цветовое пространство : YUV
Субдискретизация насыщенности : 4:2:0
Битовая глубина : 8 бит
Тип развёртки : Прогрессивная
Метод сжатия : С потерями
Бит/(Пиксели*Кадры) : 0.203
Размер потока : 1,01 Гбайт (90%)
Библиотека кодирования : XviD 1.0.1 (UTC 2004-06-05)

Аудио
Идентификатор : 1
Формат : AC-3
Формат/Информация : Audio Coding 3
Расширение режима : CM (complete main)
Параметр Endianness формата : Big
Идентификатор кодека : 2000
Продолжительность : 1 ч. 12 м.
Вид битрейта : Постоянный
Битрейт : 224 Кбит/сек
Каналы : 2 канала
Расположение каналов : Front: L R
Частота : 48,0 КГц
Битовая глубина : 16 бит
Метод сжатия : С потерями
Размер потока : 117 Мбайт (10%)
Выравнивание : Разделение по промежуткам
Продолжительность промежутка : 96 мс. (2,40 видеокадра)
Время предзагрузки промежутка : 96 мс.
Скриншоты:


[NNMClub.to]_Kljuchi ot neba.avi..torrent
 Торрент: Платиновая раздача  Зарегистрирован
 
Скачать


Примагнититься
 Зарегистрирован:   09 Апр 2017 18:32:03
 Размер:   1,13 GB  (
 Рейтинг:   4,8 (Голосов: 177)
 Поблагодарили:   666
 Проверка:   Оформление проверено модератором 09 Апр 2017 18:34:01
Как cкачать  ·  Как раздать  ·  Правильно оформить  ·  Поднять ратио!  
Scorpiosa
Стаж: 8 лет 4 мес.
Сообщений: 149
Ratio: 13,954
100%
russia.gif
Удачная советская комедия.
Спасибо автору за навеянные приятные воспоминания.
sorrento
Стаж: 12 лет
Сообщений: 66
Ratio: 25,376
100%
Вот и не стало рядового Лагоды. Сегодня в ночь Александр Леньков умер. Спасибо ему за его роли, пусть земля ему будет пухом. Слышал как-то, что те, кто ушел на пасхальной неделе сразу попадают в рай. Пусть это будет правдой!
gagagrim1
Стаж: 8 лет 5 мес.
Сообщений: 104
Ratio: 33,337
Раздал: 24,81 TB
100%
Откуда: Украина
ukraine.gif
sorrento писал(а): Перейти к сообщению
Те, кто ушел на пасхальной неделе сразу попадают в рай. Пусть это будет правдой!


Он был в большей части своих ролей комиком -
Его амплуа - веселил людей - ВСПОМНИТЕ, повеселитесь, улыбнитесь, посмейтесь - он это всю жизнь воплощал в своих ролях.
Люди его будут помнить и вспоминать, по его работам в театре и кино еще много, много и много лет.......

Покойся с миром Александр Сергеевич.

_________________
Не что очень и очень хорошее и не что очень и очень плохое
Не бывает очень и очень долго...
Mr_Romizz
Стаж: 8 лет 4 мес.
Сообщений: 1536
Ratio: 2,625
100%
Откуда: Санкт-Петербург
russia.gif
gagagrim1 писал(а): Перейти к сообщению
sorrento писал(а): Перейти к сообщению
Те, кто ушел на пасхальной неделе сразу попадают в рай. Пусть это будет правдой!


Он был в большей части своих ролей комиком -
Его амплуа - веселил людей - ВСПОМНИТЕ, повеселитесь, улыбнитесь, посмейтесь - он это всю жизнь воплощал в своих ролях.
Люди его будут помнить и вспоминать, по его работам в театре и кино еще много, много и много лет.......

Покойся с миром Александр Сергеевич.


присоединяюсь. лучше и не скажешь. его голос был самым узнаваемым в кино и на ТВ. хороший, добрый, скромный человек...
eduard3469
Стаж: 9 лет
Сообщений: 126
Ratio: 150,178
Раздал: 26,03 TB
100%
ussr.gif
Да, старый фильм, интересный.
Никулин Юрий
Стаж: 7 лет
Сообщений: 195
Ratio: 25,881
Раздал: 22,28 TB
100%
Откуда: Приволжский Ф.О.
russia.gif
Очень хороший фильм. И очень хороший актёр...
datchanin.ru
Стаж: 9 лет
Сообщений: 700
Ratio: 85,037
100%
До чего классная старая Советская Комедия!
MVN777
Стаж: 5 лет 2 мес.
Сообщений: 139
Ratio: 42,552
100%
Раньше были времена, а теперь - моменты...
vovka036
Стаж: 9 лет
Сообщений: 1201
Ratio: 0,736
100%
russia.gif
Фильм детства. Хороший, весёлый, добрый. Тогда в Советскую Армию свято верили. Все служили.
Показать сообщения:   
Начать новую тему   Ответить на тему    Торрент-трекер NNM-Club -> Классика кино и Старые фильмы до 90-х -> Старые Отечественные Фильмы (HD*Rip/LQ, DVDRip, SATRip, VHSRip) Часовой пояс: GMT + 3
Страница 1 из 1