Классический форум-трекер
canvas not supported
Нас вместе: 4 103 955

Семья Зацепиных (1977) SATRip


 
 
RSS
Начать новую тему   Ответить на тему    Торрент-трекер NNM-Club -> Классика кино и Старые фильмы до 90-х -> Старые Отечественные Фильмы (HD*Rip/LQ, DVDRip, SATRip, VHSRip)
Автор Сообщение
fictionss ®
Стаж: 9 лет 9 мес.
Сообщений: 108
Ratio: 3,387
Поблагодарили: 3363
100%
ussr.gif
Семья Зацепиных (1977) SATRip [серии 1-2 из 2]
Русское название: Семья Зацепиных
Год выпуска: 1977
Премьера: 22 марта 1977
Жанр: Мелодрама, Семейный

Описание фильма:
Фильм о большой семье Зацепиных, работающей на автозаводе. О взаимоотношениях родителей и детей; о том, как сложились судьбы молодых Зацепиных. О любви, поддержке, понимании и счастье в большой семье!

Режиссер: Борис Дуров
Актеры: Пётр Чернов, Нина Архипова, Вячеслав Спесивцев, Евгения Уралова, Виталий Юшков, Любовь Полищук, Елена Сафонова, Борис Соколов, Леонид Неведомский, Ирина (Ирен) Азер, Алексей Мокроусов, Сергей Скрипкин, Валерий Анисимов, Лариса Барабанова, Владимир Гуляев, Владимир Драковский, Бронислава Захарова, Людмила Иванова, Юрий Никольский, Надежда Самсонова, Елена Санько, Юрий Сучков, Виктор Фокин, Виктор Уральский

Продолжительность: 2x~01:07:30



Видеокодек: Xvid
Битрейт видео: ~ 2150 kb/s
Размер кадра: 704 x 528
Качество видео: SATRip
Аудиокодек: MP3
Битрейт аудио: 192 kb/s CBR
Общее
Полное имя : H:\Видео-закачка\Отечественные\Мелодрама\Семья Зацепиных\Sem`ja_Zacepinih_0001.avi
Формат : AVI
Формат/Информация : Audio Video Interleave
Профиль формата : OpenDML
Размер файла : 1,14 Гбайт
Продолжительность : 1 ч. 8 м.
Общий поток : 2390 Кбит/сек

Видео
Идентификатор : 0
Формат : MPEG-4 Visual
Профиль формата : Advanced Simple@L5
Параметр BVOP формата : 2
Параметр QPel формата : Нет
Параметр GMC формата : Без точки перехода
Параметр матрицы формата : Default (H.263)
Режим смешивания : Сжатый битовый поток
Идентификатор кодека : XVID
Идентификатор кодека/Подсказка : XviD
Продолжительность : 1 ч. 8 м.
Битрейт : 1965 Кбит/сек
Ширина : 704 пикселя
Высота : 528 пикселей
Соотношение сторон : 4:3
Частота кадров : 25,000 кадров/сек
Цветовое пространство : YUV
Субдискретизация насыщенности : 4:2:0
Битовая глубина : 8 бит
Тип развёртки : Прогрессивная
Метод сжатия : С потерями
Бит/(Пиксели*Кадры) : 0.211
Размер потока : 959 Мбайт (82%)
Библиотека кодирования : XviD 63

Аудио
Идентификатор : 1
Формат : MPEG Audio
Версия формата : Version 1
Профиль формата : Layer 3
Идентификатор кодека : 55
Идентификатор кодека/Подсказка : MP3
Продолжительность : 1 ч. 8 м.
Вид битрейта : Постоянный
Битрейт : 192 Кбит/сек
Каналы : 2 канала
Частота : 48,0 КГц
Метод сжатия : С потерями
Размер потока : 93,7 Мбайт (8%)
Выравнивание : Соединение по промежуткам
Продолжительность промежутка : 24 мс. (0,60 видеокадр)
Время предзагрузки промежутка : 88 мс.
Библиотека кодирования : LAME3.97
Настройки программы : -m s -V 4 -q 1 -b 192
Общее
Полное имя : H:\Видео-закачка\Отечественные\Мелодрама\Семья Зацепиных\Sem`ja_Zacepinih_0002.avi
Формат : AVI
Формат/Информация : Audio Video Interleave
Профиль формата : OpenDML
Размер файла : 1,26 Гбайт
Продолжительность : 1 ч. 7 м.
Общий поток : 2660 Кбит/сек

Видео
Идентификатор : 0
Формат : MPEG-4 Visual
Профиль формата : Advanced Simple@L5
Параметр BVOP формата : 2
Параметр QPel формата : Нет
Параметр GMC формата : Без точки перехода
Параметр матрицы формата : Default (H.263)
Режим смешивания : Сжатый битовый поток
Идентификатор кодека : XVID
Идентификатор кодека/Подсказка : XviD
Продолжительность : 1 ч. 7 м.
Битрейт : 2235 Кбит/сек
Ширина : 704 пикселя
Высота : 528 пикселей
Соотношение сторон : 4:3
Частота кадров : 25,000 кадров/сек
Цветовое пространство : YUV
Субдискретизация насыщенности : 4:2:0
Битовая глубина : 8 бит
Тип развёртки : Прогрессивная
Метод сжатия : С потерями
Бит/(Пиксели*Кадры) : 0.241
Размер потока : 1,06 Гбайт (84%)
Библиотека кодирования : XviD 63

Аудио
Идентификатор : 1
Формат : MPEG Audio
Версия формата : Version 1
Профиль формата : Layer 3
Идентификатор кодека : 55
Идентификатор кодека/Подсказка : MP3
Продолжительность : 1 ч. 7 м.
Вид битрейта : Постоянный
Битрейт : 192 Кбит/сек
Каналы : 2 канала
Частота : 48,0 КГц
Метод сжатия : С потерями
Задержка видео : 3 мс.
Размер потока : 92,9 Мбайт (7%)
Выравнивание : Разделение по промежуткам
Продолжительность промежутка : 24 мс. (0,60 видеокадр)
Время предзагрузки промежутка : 2 мс.
Скриншоты:
Время раздачи: С 20:00 до 24:00

Мои раздачи
[NNM-Club.ru]_Sem'ya_Zatsepinyih_1977_SATRip_(704x527).torrent
 Торрент: Платиновая раздача  Зарегистрирован
 
Скачать


Примагнититься
 Зарегистрирован:   06 Окт 2012 19:11:14
 Размер:   2,4 GB  (
 Рейтинг:   4,1 (Голосов: 14)
 Поблагодарили:   47
 Проверка:   Оформление проверено модератором 06 Окт 2012 23:45:12
Как cкачать  ·  Как раздать  ·  Правильно оформить  ·  Поднять ратио!  
Показать сообщения:   
Начать новую тему   Ответить на тему    Торрент-трекер NNM-Club -> Классика кино и Старые фильмы до 90-х -> Старые Отечественные Фильмы (HD*Rip/LQ, DVDRip, SATRip, VHSRip) Часовой пояс: GMT + 3
Страница 1 из 1