Классический форум-трекер
canvas not supported
Нас вместе: 4 077 970

Elf Princess Rane / Рейн - принцесса эльфов [1995, OVA, 2 из 2] DVDRip hs+rus


 
 
RSS
Начать новую тему   Ответить на тему    Торрент-трекер NNM-Club -> Аниме разное -> Аниме хардсаб
Автор Сообщение
gdfhs6t6we ®
Стаж: 8 лет 4 мес.
Сообщений: 675
Ratio: 780,298
Поблагодарили: 12213
100%
albania.gif
妖精姫レーン / Elf Princess Rane / Рейн - принцесса эльфов
Жанр: приключения, комедия
Тип: OVA
Количество серий: 2 из 2
Продолжительность: OVA (2 эп.), 30 мин.
Дата премьеры / период выхода: c 27.10.1995 по 26.01.1996
Производство/студия: Dangun Pictures, Suzuki Tooru
Режиссер: Дайти Акитаро

Качество видео: DVDRip
Видео: MPEG-4, 512x384, 29,970 кадра/сек, ~1497 кбит/с
Аудио #1: Профессиональный (одноголосый), MPEG Audio, 2 ch, 128 кбит/с, 48 КГц. Звук: Русский (поверх японского).

Тип субтитров: HS
Язык неотключаемых субтитров: Английский
Код:

Общее
Полное имя                               : N:\torrent\Elf_ Princess_ Rane].avi
Формат                                   : AVI
Формат/Информация                        : Audio Video Interleave
Размер файла                             : 667 Мбайт
Продолжительность                        : 57 м.
Общий поток                              : 1633 Кбит/сек

Видео
Идентификатор                            : 0
Формат                                   : MPEG-4 Visual
Параметр BVOP формата                    : 1
Параметр QPel формата                    : Нет
Параметр GMC формата                     : Без точки перехода
Параметр матрицы формата                 : Default (H.263)
Режим смешивания                         : Сжатый битовый поток
Идентификатор кодека                     : DIVX
Идентификатор кодека/Информация          : Project Mayo
Идентификатор кодека/Подсказка           : DivX 4
Продолжительность                        : 57 м.
Битрейт                                  : 1497 Кбит/сек
Ширина                                   : 512 пикселей
Высота                                   : 384 пикселя
Соотношение сторон                       : 4:3
Частота кадров                           : 29,970 кадров/сек
Цветовое пространство                    : YUV
Субдискретизация насыщенности            : 4:2:0
Битовая глубина                          : 8 бит
Тип развёртки                            : Прогрессивная
Метод сжатия                             : С потерями
Бит/(Пиксели*Кадры)                      : 0.254
Размер потока                            : 612 Мбайт (92%)
Библиотека кодирования                   : DivX 5.1.1 (Maupiti) (UTC 2003-11-19)

Аудио
Идентификатор                            : 1
Формат                                   : MPEG Audio
Версия формата                           : Version 1
Профиль формата                          : Layer 3
Идентификатор кодека                     : 55
Идентификатор кодека/Подсказка           : MP3
Продолжительность                        : 57 м.
Вид битрейта                             : Постоянный
Битрейт                                  : 128 Кбит/сек
Каналы                                   : 2 канала
Частота                                  : 48,0 КГц
Метод сжатия                             : С потерями
Размер потока                            : 52,3 Мбайт (8%)
Выравнивание                             : Разделение по промежуткам
Продолжительность промежутка             : 968  мс. (29,00 видеокадров)
01. When the Treasure is Screwed up, Everything is Screwed up! A Reckless Treasure Boy
02. The Pheonix Takes to the Sky. A Burst Birthday in a Hot Spring
Описание:
Такарада Го-юный охотник за сокровищами, пытающийся отыскать в окрестностях родного города Жемчужину четырех сердец. Вместо нее он находит принцессу эльфов Рейн, "девочку-с-пальчик", явившуюся на Землю за все той-же Жемчужиной. К сожалению, Рейн и Го говорят на разных языках...
В то же время Юмэноката Мари, соседка и подруга детства Го, тщетно пытается добиться его внимания, а отец Мари тайно строит огромный развлекательный комплекс. Так же в историю замешаны старшие сестры-тройняшки Го, менеджер отца Мари, конкурентка Рейн по получению трона страны эльфов, и еще много странных персонажей.

Ссылки:
Ani-DB :: World Art
Скриншоты:


Время раздачи: 24/7 до первых 3х скачавших
[NNM-Club.ru]_Elf_ Princess_ Rane.avi.torrent
 Торрент: Золотая раздача  Зарегистрирован
 
Зарегистрируйтесь и скачайте торрент!
13,3 KB

 Зарегистрирован:   06 Окт 2012 21:53:04
 Размер:   667 MB  (
 Рейтинг:   4,3 (Голосов: 10)
 Поблагодарили:   8
 Проверка:   Оформление проверено модератором 06 Окт 2012 23:05:57
Как cкачать  ·  Как раздать  ·  Правильно оформить  ·  Поднять ратио!  
landrb
Стаж: 8 лет 5 мес.
Сообщений: 3
Ratio: 161,439
56.52%
belarus.gif
Неплохое Anime жаль нет продолжения. :)
Показать сообщения:   
Начать новую тему   Ответить на тему    Торрент-трекер NNM-Club -> Аниме разное -> Аниме хардсаб Часовой пояс: GMT + 3
Страница 1 из 1