Классический форум-трекер
canvas not supported
Нас вместе: 4 115 140

Карпов (2012) DVB (серии 1-32 из 32)


 
 
RSS
Начать новую тему   Ответить на тему    Торрент-трекер NNM-Club -> Отечественные сериалы -> Глухарь
Автор Сообщение
SokRus ®
Стаж: 10 лет 2 мес.
Сообщений: 18
Ratio: 24,058
Раздал: 4,408 TB
Поблагодарили: 216
100%
Откуда: Москва
ussr.gif
Карпов (2012) DVB (серии 1-32 из 32)
Русское название: Карпов
Год выпуска: 2012
Жанр: Криминал, Детектив

Релиз группа: CLIPMAN


Дата российской премьеры: 24.09.2012
Дата выхода DVD/Blu-Ray релиза: 01.11.2012

Режиссер: Игорь Ромащенко, Иван Щёголев
Актеры: Владислав Котлярский, Степан Рожнов, Юлия Майборода, Максим Щёголев, Николай Козак, Анна Михайловская, Дмитрий Блажко, Дмитрий Мазуров, Сергей Карленков, Константин Столяров, Михаил Скачков, Юлия Селиванова, Артем Барсуков, Александр Сергеев (IV), Виктор Мютников, Константин Шелягин, Виктория Тарасова, Владислав Шкляев, Григорий Анашкин, Юлия Гусак, Арсений Перов, Андрей Сорока, Юрий Пономаренко, Андрей Перунов, Федор Румянцев, Анна Зверева, Андрей Березкин, Елена Калабина, Сергей Ланбамин, Ульяна Ворожейкина, Алексей Захаров, Максим Громов, Александр Шелудько, Александр Синюков, Анна Ровинская, Михаил Шкамаридин, Евгений Сафронов (II), Николай Зазуля

Описание фильма:
Телесериал «Карпов» расскажет о дальнейшей судьбе бывшего подполковника милиции Стаса Карпова. Освободившись после принудительного лечения, Карпов оказывается «у разбитого корыта». Не осталось ничего из того, чего он так долго добивался: ни денег, ни положения, ни власти. Бывшему менту выписан волчий билет, в полицию он не попадет даже на самую мелкую должность. Пытаясь хоть как-то прокормить себя, Карпов устраивается работать охранником на склад. Он смотрит на мир трезвыми глазами, не задурманенными властью. Однажды он видит объявление о вознаграждении за розыск преступника и понимает, что помнит того по старым делам, и может разыскать его…

Продолжительность: 32 ~ 00:45:00
Качество видео: DVB
Сэмпл: Скачать

Видеокодек: MPEG-2
Битрейт видео: ~5127 Kbps
Размер кадра: 720x576 (4:3)
Аудиокодек: MP2
Битрейт аудио: MPEG Audio 48000Hz stereo 192 Кбит/сек
Общее
Полное имя : C:\torrents\Карпов_DVB_by_CLIPMAN\Карпов.10_DVB_by_CLIPMAN.mpg
Формат : MPEG-PS
Размер файла : 1,68 Гбайт
Продолжительность : 44 м.
Режим общего битрейта : Переменный
Общий поток : 5427 Кбит/сек

Видео
Идентификатор : 224 (0xE0)
Формат : MPEG Video
Версия формата : Version 2
Профиль формата : Main@Main
Параметр BVOP формата : Да
Параметр матрицы формата : Выборочная
Параметр GOP формата : M=3, N=18
Продолжительность : 44 м.
Вид битрейта : Переменный
Битрейт : 5127 Кбит/сек
Максимальный битрейт : 15,0 Мбит/сек
Ширина : 720 пикселей
Высота : 576 пикселей
Соотношение сторон : 4:3
Частота кадров : 25,000 кадров/сек
Стандарт вещания : PAL
Цветовое пространство : YUV
Субдискретизация насыщенности : 4:2:0
Битовая глубина : 8 бит
Тип развёртки : Чересстрочная
Порядок развёртки : Верхнее поле первое
Метод сжатия : С потерями
Бит/(Пиксели*Кадры) : 0.495
Размер потока : 1,59 Гбайт (94%)

Аудио
Идентификатор : 192 (0xC0)
Формат : MPEG Audio
Версия формата : Version 1
Профиль формата : Layer 2
Продолжительность : 44 м.
Вид битрейта : Постоянный
Битрейт : 192 Кбит/сек
Каналы : 2 канала
Частота : 48,0 КГц
Метод сжатия : С потерями
Размер потока : 60,8 Мбайт (4%)
Скриншоты:


Все раздачи сериала «Карпов» на трекере

Время раздачи: 24/7 - круглосуточно
[NNM-Club.ru]_Karpov_DVB_by_CLIPMAN.torrent
 Торрент: Платиновая раздача  Зарегистрирован
 
Скачать


 Зарегистрирован:   13 Окт 2012 21:26:54
 Размер:   54,8 GB  (
 Рейтинг:   4,5 (Голосов: 77)
 Поблагодарили:   216
 Проверка:   Оформление проверено модератором 13 Окт 2012 22:59:55
Как cкачать  ·  Как раздать  ·  Правильно оформить  ·  Поднять ратио!  
tidussan
Стаж: 9 лет 6 мес.
Сообщений: 275
Ratio: 0,768
Поблагодарили: 3
100%
Откуда: санкт петербург
russia.gif
Скажите пожалуйста! какая музыка играет в последней 32 серии сериала карпов ???????
salex8484
Стаж: 12 лет 2 мес.
Сообщений: 1
Ratio: 11,834
100%
russia.gif
Константин Легостаев – Забудь свой ад
Dark_KRONOS
Стаж: 11 лет 4 мес.
Сообщений: 184
Ratio: 5,55
Поблагодарили: 1358
100%
witch.png
salex8484
Спасибо
vorlons
Стаж: 9 лет 2 мес.
Сообщений: 2
Ratio: 12,931
30%
Откуда: Москва
russia.gif
=)
svlesin
Модератор Документалистики/TV
RG Releasers
Релизер 25000+ Uploader 300+
 
Стаж: 10 лет 5 мес.
Сообщений: 33813
Ratio: 1842,863
Поблагодарили: 3254885
100%
russia.gif
Карпов. Пятницкий. Послесловие (2012.11.09) SATRip

_________________
Уважаемые пользователи Клуба! От меня релизов больше не будет. Может быть, буду поддерживать «Обновляемые раздачи». Спасибо всем, кто благодарил меня и говорил/нажимал «Спасибо»!
Fanta_Giro
Стаж: 9 лет 6 мес.
Сообщений: 24
Ratio: 0,978
100%
russia.gif
Вызывает похожие на оставшиеся после просмотра первого Бумера чувства...
blat1
Uploader 100+
Стаж: 8 лет 7 мес.
Сообщений: 262
Ratio: 142,085
Раздал: 298,8 TB
Поблагодарили: 177
100%
russia.gif
интересный прикол в dvb, первый сезон битрейт видео 5127, второй 4300, третий 2290, если бы был 4ый был бы наверно 1000+...

дайте скорости сутки стою 0%..
Показать сообщения:   
Начать новую тему   Ответить на тему    Торрент-трекер NNM-Club -> Отечественные сериалы -> Глухарь Часовой пояс: GMT + 3
Страница 1 из 1