Классический форум-трекер
canvas not supported
Нас вместе: 4 093 583

Перелом. Хроника Победы. Серия 3. (Тихвинская наступательная операция) (2012) SATRip


 
 
RSS
Начать новую тему   Ответить на тему    Торрент-трекер NNM-Club -> Архив торрентов -> Архив Документалистики и TV
Автор Сообщение
svlesin ®
Модератор Документалистики/TV
RG Releasers
Релизер 25000+ Uploader 300+
 
Стаж: 10 лет 2 мес.
Сообщений: 33802
Ratio: 1813,461
Поблагодарили: 3252639
100%
russia.gif
Перелом. Хроника Победы. Серия 3. (Тихвинская наступательная операция) (2012) SATRip
Режиссер / Телекомпания: Звезда
Русское название: Перелом. Хроника Победы
Год выпуска: 2012
Жанр: История, документальный

Описание:
Через Тихвин проходила единственная ветка железной дороги, по которой грузы и подкрепление шли к Ладоге, а дальше в Ленинград. Город уже несколько месяцев находился в блокаде. Чтобы помешать противнику создать двойное кольцо блокады, Ставка Верховного Главнокомандования разработала план Тихвинской наступательной операции. Главный удар наносила из района Тихвина 4-я армия с задачей соединиться в районе Киришей с войсками 54-й армии и в р-не Грузино с войсками 52-й армии. Руководство операцией Ставка поручила Кириллу Мерецкову. 10 ноября части перешли в наступление. Первыми ударили войска Новгородской оперативной армейской группы. Это был вспомогательный удар с целью отвлечь противника и захватить плацдармы на левом берегу Волхова. Тяжелые бои шли почти месяц. Только 9 декабря войска 4-й армии освободили Тихвин. В ходе дальнейшего преследования противник вынужден был оставить город и отойти к Волхову. Фактически это означало потерю контроля над железной дорогой через Тихвин к Ладожскому озеру. Советские войска нанесли тяжёлый урон 8 немецким дивизиям. Тихвинская стратегическая операция стала первым серьезным поражением врага на советско-германском фронте.

Режиссёр: Олег Четвериков

Продолжительность: ~ 00:24:21

Видеокодек: XVID
Битрейт видео: ~1647 kb/s
Размер кадра: 640 x 480
Качество видео: SATRip
Аудиокодек: MP3, 2ch.
Битрейт аудио: 128 kb/s
Формат : AVI
Формат/Информация : Audio Video Interleave
Размер файла : 311 Мбайт
Продолжительность : 24 м.
Общий поток : 1786 Кбит/сек
Программа кодирования : VirtualDubMod 1.5.10.3 | www.virtualdub-fr.org || (build 2550/release)
Библиотека кодирования : VirtualDubMod build 2550/release

Видео
Идентификатор : 0
Формат : MPEG-4 Visual
Профиль формата : Advanced Simple@L5
Параметр BVOP формата : 1
Параметр QPel формата : Нет
Параметр GMC формата : Без точки перехода
Параметр матрицы формата : Default (H.263)
Идентификатор кодека : XVID
Идентификатор кодека/Подсказка : XviD
Продолжительность : 24 м.
Битрейт : 1648 Кбит/сек
Ширина : 640 пикселей
Высота : 480 пикселей
Соотношение сторон : 4:3
Частота кадров : 25,000 кадров/сек
Цветовое пространство : YUV
Субдискретизация насыщенности : 4:2:0
Битовая глубина : 8 бит
Тип развёртки : Прогрессивная
Метод сжатия : С потерями
Бит/(Пиксели*Кадры) : 0.215
Размер потока : 287 Мбайт (92%)
Библиотека кодирования : XviD 1.2.1 (UTC 2008-12-04)

Аудио
Идентификатор : 1
Формат : MPEG Audio
Версия формата : Version 1
Профиль формата : Layer 3
Идентификатор кодека : 55
Идентификатор кодека/Подсказка : MP3
Продолжительность : 24 м.
Вид битрейта : Постоянный
Битрейт : 128 Кбит/сек
Каналы : 2 канала
Частота : 48,0 КГц
Метод сжатия : С потерями
Размер потока : 22,3 Мбайт (7%)
Выравнивание : Соединение по промежуткам
Продолжительность промежутка : 40 мс. (1,00 видеокадр)
Время предзагрузки промежутка : 504 мс.
Библиотека кодирования : LAME3.98r
Настройки программы : -m s -V 4 -q 2 -lowpass 17 -b 128
Скриншоты:
Время раздачи: 24/7. До первых 5 скачавших.
Rip by Bender
Перелом. Хроника Победы на NoNaMe Club
[NNM-Club.ru]_Perelom. Hronika Pobedyi. Seriya 3. (Tihvinskaya nastupatel'naya operatsiya) (2012).avi.torrent
 Торрент: Золотая раздача  Зарегистрирован
 
Зарегистрируйтесь и скачайте торрент!
12,4 KB

Примагнититься
 Зарегистрирован:   07 Окт 2012 08:44:31
 Размер:   311 MB  (
 Рейтинг:   4,7 (Голосов: 22)
 Поблагодарили:   79
 Проверка:   Оформление проверено модератором 07 Окт 2012 08:44:48
Как cкачать  ·  Как раздать  ·  Правильно оформить  ·  Поднять ратио!  

_________________
Уважаемые пользователи Клуба! От меня релизов больше не будет. Может быть, буду поддерживать «Обновляемые раздачи». Спасибо всем, кто благодарил меня и говорил/нажимал «Спасибо»!
Дракоша2222
Стаж: 7 лет 10 мес.
Сообщений: 590
Ratio: 123,911
Поблагодарили: 30306
100%
Откуда: Донецк, ДНР
ussr.gif
Огромное спасибо!

_________________
Нельзя спокойно жить, когда страна развалена -
Позорно русским быть без Родины, без Сталина.
Вадим_Курилов
Стаж: 9 лет 4 мес.
Сообщений: 19
Ratio: 5,713
Раздал: 1,073 TB
20.37%
Откуда: Новороссийск
ussr.gif
спасибо
Топик был перенесен из форума Вторая Мировая война в форум Архив Документалистики и TV

Причина переноса: http://nnmclub.to/forum/viewtopic.php?t=596759
svlesin
Показать сообщения:   
Начать новую тему   Ответить на тему    Торрент-трекер NNM-Club -> Архив торрентов -> Архив Документалистики и TV Часовой пояс: GMT + 3
Страница 1 из 1