Классический форум-трекер
canvas not supported
Нас вместе: 4 104 147

Кто штурмовал "Зимний" (2003) TVRip


 
 
RSS
Начать новую тему   Ответить на тему    Торрент-трекер NNM-Club -> Документалистика и Телепередачи -> Отечественная история
Автор Сообщение
fictionss ®
Стаж: 9 лет 9 мес.
Сообщений: 108
Ratio: 3,387
Поблагодарили: 3363
100%
ussr.gif
Кто штурмовал "Зимний" (2003) TVRip
Название: Кто штурмовал "Зимний"

Режиссер / Телекомпания: Юрий Кияшко / Телекомпания "Цивилизация"
Год выпуска: 2003
Жанр: Документальный, исторический

Описание:
В старом петербургском доме кладоискатели обнаружили дневник одного из жителей дореволюционного Санкт-Петербурга. Автор дневника, судя по содержанию записок, был участником обороны Зимнего дворца в ночь с 25 на 26 октября 1917 года. В дневнике было описано все, что происходило тогда на Дворцовой площади Петрограда. Правда, на страницах этого документа известные всем события представлены совсем не так, как их преподают в школе.
По словам автора, все попытки штурма Зимнего дворца необученными отрядами рабочих и матросов были отбиты и большевикам никогда бы не удалось захватить власть, если бы не вмешательство загадочного отряда штурмовиков в форме императорской армии. Именно он за считанные минуты смог осуществить штурм .....

Продолжительность: 00:25:00

Видеокодек: Xvid
Битрейт видео: ~566 kb/s
Размер кадра: 416 x 320
Качество видео: TVRip
Аудиокодек: MP3
Битрейт аудио: 128 kb/s, 2ch
Общее
Полное имя : H:\Видео-закачка\Документальные\Исторические\Искатели - Кто штурмовал Зимний - 2003.avi
Формат : AVI
Формат/Информация : Audio Video Interleave
Размер файла : 131 Мбайт
Продолжительность : 25 м.
Общий поток : 706 Кбит/сек
Программа кодирования : VirtualDubMod 1.5.10.1 (build 2366/release)
Библиотека кодирования : VirtualDubMod build 2366/release

Видео
Идентификатор : 0
Формат : MPEG-4 Visual
Профиль формата : Simple@L3
Параметр BVOP формата : 2
Параметр QPel формата : Нет
Параметр GMC формата : Без точки перехода
Параметр матрицы формата : Default (H.263)
Идентификатор кодека : XVID
Идентификатор кодека/Подсказка : XviD
Продолжительность : 25 м.
Битрейт : 566 Кбит/сек
Ширина : 416 пикселей
Высота : 320 пикселей
Соотношение сторон : 4:3
Частота кадров : 29,970 кадров/сек
Цветовое пространство : YUV
Субдискретизация насыщенности : 4:2:0
Битовая глубина : 8 бит
Тип развёртки : Прогрессивная
Метод сжатия : С потерями
Бит/(Пиксели*Кадры) : 0.142
Размер потока : 105 Мбайт (80%)
Библиотека кодирования : XviD 0.0.09 (UTC 2003-03-25)

Аудио
Идентификатор : 1
Формат : MPEG Audio
Версия формата : Version 1
Профиль формата : Layer 3
Режим : Joint stereo
Идентификатор кодека : 55
Идентификатор кодека/Подсказка : MP3
Продолжительность : 25 м.
Вид битрейта : Постоянный
Битрейт : 128 Кбит/сек
Каналы : 2 канала
Частота : 48,0 КГц
Метод сжатия : С потерями
Размер потока : 23,8 Мбайт (18%)
Выравнивание : Соединение по промежуткам
Продолжительность промежутка : 33 мс. (1,00 видеокадр)
Время предзагрузки промежутка : 504 мс.
Скриншоты:

Время раздачи: С 20:00 до 24:00

Мои раздачи
[NNM-Club.ru]_Iskateli - Kto shturmoval Zimniy - 2003.avi.torrent
 Торрент: Платиновая раздача  Зарегистрирован
 
Скачать


Примагнититься
 Зарегистрирован:   07 Окт 2012 11:11:39
 Размер:   131 MB  (
 Рейтинг:   4,5 (Голосов: 26)
 Поблагодарили:   122
 Проверка:   Оформление проверено модератором 08 Окт 2012 14:43:27
Как cкачать  ·  Как раздать  ·  Правильно оформить  ·  Поднять ратио!  
fictionss ®
Стаж: 9 лет 9 мес.
Сообщений: 108
Ratio: 3,387
Поблагодарили: 3363
100%
ussr.gif
Для тех, кому интересна эта раздача также будут интересны мои раздачи "Парвус революции" и "Караул устал ждать"!

_________________
Когда я могу сидеть - я никогда не стою!
Когда я могу лежать - я никогда не сижу!
cacheasv
Uploader 100+
 
Стаж: 8 лет 10 мес.
Сообщений: 508
Ratio: 715,414
Поблагодарили: 24
100%
толку то что от этого узнавания, ну ладно - не простые солдаты и матросы и народ захватили а СПЕЦНАЗ тех времён, и что теперь? что то в истории изменится? да, вы скажете что надо знать то что в действительности было, но это ведь настолько мелко и ,в принципе, не интересно.
Интересным это может быть по одному поводу - как нами манипулируют. но оно и так понятно, сколько ни кричи и не требуй толку=0
Злой Перец
 
Стаж: 9 лет 2 мес.
Сообщений: 788
Ratio: 4,194
Поблагодарили: 491
100%
Откуда: Великороссия
russia.gif
cacheasv писал(а): Перейти к сообщению
толку то что от этого узнавания....

а я считаю - историю нужно знать хотя бы для того, что бы не совершать ошибки в дальнейшем
Госкомстат
Стаж: 11 лет
Сообщений: 4
Ratio: 0,579
4.31%
russia.gif
Какой спецназ? Откуда? И именно у большевиков (точнее у кучки евреев)? НЕМЦЫ. Военнопленные после "Брусиловского прорыва'' Примерно 2 дивизии. Они же "латышские стрелки"

Добавлено спустя 27 минут 5 секунд:

И еще. Попробуйте найти хоть что-то именно о немецких военнопленных (дорволюционных) в советкой историографии. Воевали то именно с Германией. Ну и где они? Интересно. Почему бы это?
Cergey1973
Стаж: 10 лет 4 мес.
Сообщений: 112
Ratio: 2,616
3.67%
russia.gif
братан, о чем ты хочешь рассказать коровам в коровнике ? им бы где травка позеленее и бычки побрутальнее )))
vkrokus
Стаж: 10 лет 3 мес.
Сообщений: 1253
Ratio: 21,922
100%
Откуда: Земля Русская
Еще один вброс дезы...
oursk
Стаж: 7 лет 7 мес.
Сообщений: 341
Ratio: 62,026
100%
То, что в этом фильме выдают за «дневник русского офицера» — явная фальшивка, очень грубо состряпанная. Повреждения страниц выглядят очень неестественно. Очевидно, их пытались «состарить», но неумело. Перестарались.
Ещё хуже с текстом. Одного взгляда достаточно, чтобы понять — писавший его бездарный фальсификатор ни малейшего понятия не имеет о той русской орфографии (не очень-то и сложной), которой писал бы русский офицер (т.е. образованный человек) в 1917 году.
Показать сообщения:   
Начать новую тему   Ответить на тему    Торрент-трекер NNM-Club -> Документалистика и Телепередачи -> Отечественная история Часовой пояс: GMT + 3
Страница 1 из 1