Классический форум-трекер
canvas not supported
Нас вместе: 4 104 014

Парвус революции (2006) TVRip


 
 
RSS
Начать новую тему   Ответить на тему    Торрент-трекер NNM-Club -> Документалистика и Телепередачи -> История
Автор Сообщение
fictionss ®
Стаж: 9 лет 9 мес.
Сообщений: 108
Ratio: 3,387
Поблагодарили: 3363
100%
ussr.gif
Парвус революции (2006) TVRip
Название: Парвус революции

Автор: Ольга Демина
Режиссер / Телекомпания: Сергей Краус / Ассоциация "Наше кино"
Год выпуска: 2006
Жанр: Документальный, исторический

Описание:
Этот документальный фильм является частью документального цикла "Советская власть"!
Ни для кого уже не секрет, что революция 1917 года смогла состояться во многом благодаря иностранным деньгам. В первую очередь Германским. Сегодня стала очень популярной версия, согласно которой человек по фамилии Парвус стал тем двигателем, тем парусом, который и привел корабль революции в нужную гавань. Якобы именно он договаривался с Германской разведкой о траншах на счета большевиков, он убедил власти Германии пропустить через свою территорию из Швейцарии в Россию знаменитый запломбированный вагон с Лениным и его соратниками. (Кстати, кто сегодня точно знает, что именно представлял из себя знаменитый "пломбированный вагон", в котором Ленин приехал делать революцию? Практически никто.)
В этом фильме подробно рассказывается о Александре (Израиль) Лазаревиче Гельфанде (он же Парвус, Молотов, Москович), который был одним из организаторов событий осени 1917 года!
(Смотрите также фильм из данного цикла "Караул устал ждать")

Участники: Николай Илиевский, Владимир Булдаков, Лев Колодный, Аким Арутюнов, Николай Стариков

В ролях: Лев Дуров

Продолжительность: 00:43:00

Видеокодек: DivX 4/5/6
Битрейт видео: ~1199 kb/s
Размер кадра: 640 x 480
Качество видео: TVRip
Аудиокодек: MP3
Битрейт аудио: 128 kb/s CBR
Общее
Полное имя : H:\Видео-закачка\Документальные\Исторические\Парвус революции.avi
Формат : AVI
Формат/Информация : Audio Video Interleave
Размер файла : 419 Мбайт
Продолжительность : 43 м.
Общий поток : 1336 Кбит/сек
Название фильма : Парвус революции
Режиссёр : Сергей Краус, Ольга Демина
Формат оригинала/Имя : Documentary
Правообладатель : Ассоциация "Наше кино", 2006.

Видео
Идентификатор : 0
Формат : MPEG-4 Visual
Параметр BVOP формата : Нет
Параметр QPel формата : Нет
Параметр GMC формата : Без точки перехода
Параметр матрицы формата : Default (H.263)
Идентификатор кодека : DX50
Идентификатор кодека/Подсказка : DivX 5
Продолжительность : 43 м.
Битрейт : 1199 Кбит/сек
Ширина : 640 пикселей
Высота : 480 пикселей
Соотношение сторон : 4:3
Частота кадров : 25,000 кадров/сек
Цветовое пространство : YUV
Субдискретизация насыщенности : 4:2:0
Битовая глубина : 8 бит
Тип развёртки : Прогрессивная
Метод сжатия : С потерями
Бит/(Пиксели*Кадры) : 0.156
Размер потока : 375 Мбайт (90%)
Библиотека кодирования : DivX 6.2.2 (UTC 2006-04-26)

Аудио
Идентификатор : 1
Формат : MPEG Audio
Версия формата : Version 1
Профиль формата : Layer 3
Режим : Joint stereo
Расширение режима : MS Stereo
Идентификатор кодека : 55
Идентификатор кодека/Подсказка : MP3
Продолжительность : 43 м.
Вид битрейта : Постоянный
Битрейт : 128 Кбит/сек
Каналы : 2 канала
Частота : 44,1 КГц
Метод сжатия : С потерями
Размер потока : 40,1 Мбайт (10%)
Выравнивание : Разделение по промежуткам
Продолжительность промежутка : 40 мс. (0,99 видеокадр)
Время предзагрузки промежутка : 500 мс.
Скриншоты:

Время раздачи: С 20:00 до 24:00

Мои раздачи Время раздачи: С 23:00 до 24:00
[NNM-Club.ru]_Parvus revolyutsii_TVRip.torrent
 Торрент: Платиновая раздача  Зарегистрирован
 
Скачать


Примагнититься
 Зарегистрирован:   07 Окт 2012 12:57:28
 Размер:   419 MB  (
 Рейтинг:   4,1 (Голосов: 18)
 Поблагодарили:   66
 Проверка:   Оформление проверено модератором 08 Окт 2012 14:42:50
Как cкачать  ·  Как раздать  ·  Правильно оформить  ·  Поднять ратио!  
Показать сообщения:   
Начать новую тему   Ответить на тему    Торрент-трекер NNM-Club -> Документалистика и Телепередачи -> История Часовой пояс: GMT + 3
Страница 1 из 1