Классический форум-трекер
canvas not supported
Нас вместе: 4 102 679

Караул устал ждать (2006) TVRip


 
 
RSS
Начать новую тему   Ответить на тему    Торрент-трекер NNM-Club -> Документалистика и Телепередачи -> История
Автор Сообщение
fictionss ®
Стаж: 9 лет 9 мес.
Сообщений: 108
Ratio: 3,387
Поблагодарили: 3363
100%
ussr.gif
Караул устал ждать (2006) TVRip
Название: Караул устал ждать

Автор: Ольга Демина
Режиссер / Телекомпания: Сергей Краус / Ассоциация "Наше кино"
Год выпуска: 2006
Жанр: Документальный

Описание:
Этот документальный фильм является частью документального цикла "Советская власть"! (см. также документальный фильм "Парвус революции")
Любой человек, воспитанный на фильме Эйзенштейна "Октябрь" и учебнике "Краткий курс истории ВКП(б)" будет изумлен до крайности, если ему в руки попадут старые газеты за 1917 год. Прямо накануне большевистского переворота в прессе все больше какие-то светские новости, сообщения о каких-то малозначительных событиях и прочая неинтересная для потомков ерунда. В тех же, что вышли на следующий день после выстрела "Авроры" и всего того, что приключилось в нашей стране после него, лишь небольшая заметочка - Временное правительство свергнуто, власть перешла к Петроградскому совету.

А где же огромное движение народных масс, на которое, если бы одно было, не могли не откликнуться газетчики в любые времена падкие до сенсаций? Где описание знаменитого штурма оплота царизма - Зимнего дворца, в котором, если верить официальной советской историографии, с обоих сторон участвовали тысячи вооруженных людей? Его нет. Почему? Да потому что ничего подобного на самом деле не происходило. Когда революционная толпа подошла к Зимнему, оказалось, что его просто некому защищать.
Почему так случилось рассказывается в этом документальном фильме!

Участники: Николай Стариков, Валерий Ярхо, Юрий Жуков, Аким Арутюнов, Василий Цветков

В ролях: Лев Дуров

Продолжительность: 00:44:00

Видеокодек: DivX 4/5/6
Битрейт видео: ~1198 kb/s
Размер кадра: 640 x 480
Качество видео: TVRip
Аудиокодек: MP3
Битрейт аудио: 128 kb/s CBR
Общее
Полное имя : H:\Видео-закачка\Документальные\Исторические\Караул устал ждать.avi
Формат : AVI
Формат/Информация : Audio Video Interleave
Размер файла : 422 Мбайт
Продолжительность : 44 м.
Общий поток : 1336 Кбит/сек
Название фильма : Парвус революции
Режиссёр : Сергей Краус, Ольга Демина
Формат оригинала/Имя : Documentary
Правообладатель : Ассоциация "Наше кино", 2006.

Видео
Идентификатор : 0
Формат : MPEG-4 Visual
Параметр BVOP формата : Нет
Параметр QPel формата : Нет
Параметр GMC формата : Без точки перехода
Параметр матрицы формата : Default (H.263)
Идентификатор кодека : DX50
Идентификатор кодека/Подсказка : DivX 5
Продолжительность : 44 м.
Битрейт : 1198 Кбит/сек
Ширина : 640 пикселей
Высота : 480 пикселей
Соотношение сторон : 4:3
Частота кадров : 25,000 кадров/сек
Цветовое пространство : YUV
Субдискретизация насыщенности : 4:2:0
Битовая глубина : 8 бит
Тип развёртки : Прогрессивная
Метод сжатия : С потерями
Бит/(Пиксели*Кадры) : 0.156
Размер потока : 379 Мбайт (90%)
Библиотека кодирования : DivX 6.2.2 (UTC 2006-04-26)

Аудио
Идентификатор : 1
Формат : MPEG Audio
Версия формата : Version 1
Профиль формата : Layer 3
Режим : Joint stereo
Расширение режима : MS Stereo
Идентификатор кодека : 55
Идентификатор кодека/Подсказка : MP3
Продолжительность : 44 м.
Вид битрейта : Постоянный
Битрейт : 128 Кбит/сек
Каналы : 2 канала
Частота : 44,1 КГц
Метод сжатия : С потерями
Размер потока : 40,5 Мбайт (10%)
Выравнивание : Разделение по промежуткам
Продолжительность промежутка : 40 мс. (0,99 видеокадр)
Время предзагрузки промежутка : 500 мс.
Скриншоты:

Время раздачи: С 20:00 до 24:00

Мои раздачи
[NNM-Club.ru]_Karaul ustal zhdat'_TVRip.torrent
 Торрент: Золотая раздача  Зарегистрирован
 
Зарегистрируйтесь и скачайте торрент!
16,8 KB
Free Leech
Примагнититься
 Зарегистрирован:   07 Окт 2012 14:09:10
 Размер:   422 MB  (
 Рейтинг:   4,2 (Голосов: 14)
 Поблагодарили:   60
 Проверка:   Оформление проверено модератором 08 Окт 2012 14:42:34
Как cкачать  ·  Как раздать  ·  Правильно оформить  ·  Поднять ратио!  
RusichAn
Стаж: 8 лет 3 мес.
Сообщений: 17
Ratio: 13,46
100%
ussr.gif
Цитата:
Когда революционная толпа подошла к Зимнему, оказалось, что его просто некому защищать.

Нда, а в другом таком же псевдодокументальном фильме на этом же трекере "Кто штурмовал "Зимний"?" Кто штурмовал "Зимний" (2003) TVRip
Цитата:
По словам автора, все попытки штурма Зимнего дворца необученными отрядами рабочих и матросов были отбиты и большевикам никогда бы не удалось захватить власть, если бы не вмешательство загадочного отряда штурмовиков в форме императорской армии. Именно он за считанные минуты смог осуществить штурм .....
И в какое вранье спрашивается верить?
zdt
Стаж: 10 лет 2 мес.
Сообщений: 177
Ratio: 1,719
100%
lithuania.gif
Сначала были не обученные отряды рабочих и матросов ,потом отряд штурмовиков в форме императорской армии , а уже потом революционная толпа подошла к Зимнему, оказалось, что его просто некому защищать.
iv771
Стаж: 9 лет 2 мес.
Сообщений: 76
Ratio: 66,29
100%
Во Временном Правительстве только два человека не состояли в масонских ложах. Керенский был масоном.
fan_sm
Стаж: 9 лет 4 мес.
Сообщений: 145
Ratio: 1,76
Поблагодарили: 1024
100%
Откуда: Нижний Новгород
russia.gif
В фильме царская власть описывается неким кроликом, которого все хотят съесть, а он только всё морковку...добродушный такой... Только почеву в 1905-м году была расстреляна безоружная толпа царскими войсками? Почему погибло 9 тыс. человек с 1905 по 1907 гг. в ходе революции? И вообще от хорошей ли жизни революции случаются?
fictionss ®
Стаж: 9 лет 9 мес.
Сообщений: 108
Ratio: 3,387
Поблагодарили: 3363
100%
ussr.gif
fan_sm писал(а): Перейти к сообщению
В фильме царская власть описывается неким кроликом, которого все хотят съесть, а он только всё морковку...добродушный такой... Только почеву в 1905-м году была расстреляна безоружная толпа царскими войсками? Почему погибло 9 тыс. человек с 1905 по 1907 гг. в ходе революции? И вообще от хорошей ли жизни революции случаются?


Отчего революции случаются можете посмотреть на примере Югославии, Ирака, Ливии, Сирии!

_________________
Когда я могу сидеть - я никогда не стою!
Когда я могу лежать - я никогда не сижу!
Показать сообщения:   
Начать новую тему   Ответить на тему    Торрент-трекер NNM-Club -> Документалистика и Телепередачи -> История Часовой пояс: GMT + 3
Страница 1 из 1