Классический форум-трекер
canvas not supported
Нас вместе: 4 094 022

Перелом. Хроника Победы. Серия 7. (Тульская наступательная операция) (2012) SATRip


 
 
RSS
Начать новую тему   Ответить на тему    Торрент-трекер NNM-Club -> Архив торрентов -> Архив Документалистики и TV
Автор Сообщение
svlesin ®
Модератор Документалистики/TV
RG Releasers
Релизер 25000+ Uploader 300+
 
Стаж: 10 лет 2 мес.
Сообщений: 33802
Ratio: 1813,521
Поблагодарили: 3252739
100%
russia.gif
Перелом. Хроника Победы. Серия 7. (Тульская наступательная операция) (2012) SATRip
Режиссер / Телекомпания: Звезда
Русское название: Перелом. Хроника Победы
Год выпуска: 2012
Жанр: История, документальный

Описание:
В ходе этой операции Ставка Верховного Главнокомандования планировала без оперативной паузы окружить противника в районе Тулы и уничтожить его в «котле». Соединения 4-й армии фон Клюге и 2-й танковой армии Гудериана по-прежнему представляли серьезную угрозу Москве. Для проведения контрнаступления привлекались войска 50-й, 49-й и 10-й армий, а также части 1-го Гвардейского конного корпуса генерала Белова. В годы Великой Отечественной кавалеристы стали на какое-то время аналогом мотопехоты.
Наступление 10-й армии Голикова началось 6 декабря в направлении Михайлова, который после ночного боя был освобождён. Немецкие войска не имели возможности создать сплошной фронт - они занимали наиболее важные населенные пункты, которые были превращены в опорные. Эти поселки задерживали наступление 10-й армии. Немцы оказывали ожесточённое сопротивление. Части кавкорпуса генерала Белова быстро обходили опорные пункты и продолжали преследование противника. Остатки 2-й танковой армии отходили на юг и юго-запад, теряя оружие, технику и живую силу. В результате Тульской наступательной операции советские войска нанесли серьезное поражение противнику, ликвидировав угрозу обхода Москвы с Юга.

Режиссёр: Олег Четвериков

Продолжительность: ~ 00:23:55

Видеокодек: XVID
Битрейт видео: ~1647 kb/s
Размер кадра: 640 x 480
Качество видео: SATRip
Аудиокодек: MP3, 2ch.
Битрейт аудио: 128 kb/s
Формат : AVI
Формат/Информация : Audio Video Interleave
Размер файла : 305 Мбайт
Продолжительность : 23 м.
Общий поток : 1786 Кбит/сек
Программа кодирования : VirtualDubMod 1.5.10.3 | www.virtualdub-fr.org || (build 2550/release)
Библиотека кодирования : VirtualDubMod build 2550/release

Видео
Идентификатор : 0
Формат : MPEG-4 Visual
Профиль формата : Advanced Simple@L5
Параметр BVOP формата : 2
Параметр QPel формата : Нет
Параметр GMC формата : Без точки перехода
Параметр матрицы формата : Default (H.263)
Идентификатор кодека : XVID
Идентификатор кодека/Подсказка : XviD
Продолжительность : 23 м.
Битрейт : 1648 Кбит/сек
Ширина : 640 пикселей
Высота : 480 пикселей
Соотношение сторон : 4:3
Частота кадров : 25,000 кадров/сек
Цветовое пространство : YUV
Субдискретизация насыщенности : 4:2:0
Битовая глубина : 8 бит
Тип развёртки : Прогрессивная
Метод сжатия : С потерями
Бит/(Пиксели*Кадры) : 0.215
Размер потока : 282 Мбайт (92%)
Библиотека кодирования : XviD 1.2.1 (UTC 2008-12-04)

Аудио
Идентификатор : 1
Формат : MPEG Audio
Версия формата : Version 1
Профиль формата : Layer 3
Идентификатор кодека : 55
Идентификатор кодека/Подсказка : MP3
Продолжительность : 23 м.
Вид битрейта : Постоянный
Битрейт : 128 Кбит/сек
Каналы : 2 канала
Частота : 48,0 КГц
Метод сжатия : С потерями
Размер потока : 21,9 Мбайт (7%)
Выравнивание : Соединение по промежуткам
Продолжительность промежутка : 40 мс. (1,00 видеокадр)
Время предзагрузки промежутка : 504 мс.
Библиотека кодирования : LAME3.98r
Настройки программы : -m s -V 4 -q 2 -lowpass 17 -b 128
Скриншоты:

Время раздачи: 24/7. До первых 5 скачавших.
Rip by Bender
Перелом. Хроника Победы на NoNaMe Club
[NNM-Club.ru]_Perelom. Hronika Pobedyi. Seriya 07. (Tul'skaya nastupatel'naya operatsiya) (2012).avi.torrent
 Торрент: Золотая раздача  Зарегистрирован
 
Зарегистрируйтесь и скачайте торрент!
12,2 KB
Free Leech
Примагнититься
 Зарегистрирован:   08 Окт 2012 20:45:31
 Размер:   305 MB  (
 Рейтинг:   4,8 (Голосов: 24)
 Поблагодарили:   74
 Проверка:   Оформление проверено модератором 08 Окт 2012 20:46:40
Как cкачать  ·  Как раздать  ·  Правильно оформить  ·  Поднять ратио!  

_________________
Уважаемые пользователи Клуба! От меня релизов больше не будет. Может быть, буду поддерживать «Обновляемые раздачи». Спасибо всем, кто благодарил меня и говорил/нажимал «Спасибо»!
Топик был перенесен из форума Вторая Мировая война в форум Архив Документалистики и TV

Причина переноса: http://nnmclub.to/forum/viewtopic.php?t=596759
svlesin
Показать сообщения:   
Начать новую тему   Ответить на тему    Торрент-трекер NNM-Club -> Архив торрентов -> Архив Документалистики и TV Часовой пояс: GMT + 3
Страница 1 из 1