Классический форум-трекер
canvas not supported
Нас вместе: 4 093 752

Перелом. Хроника Победы. Серия 8. (Елецкая наступательная операция) (2012) SATRip


 
 
RSS
Начать новую тему   Ответить на тему    Торрент-трекер NNM-Club -> Архив торрентов -> Архив Документалистики и TV
Автор Сообщение
svlesin ®
Модератор Документалистики/TV
RG Releasers
Релизер 25000+ Uploader 300+
 
Стаж: 10 лет 2 мес.
Сообщений: 33802
Ratio: 1813,492
Поблагодарили: 3252720
100%
russia.gif
Перелом. Хроника Победы. Серия 8. (Елецкая наступательная операция) (2012) SATRip
Режиссер / Телекомпания: Звезда
Русское название: Перелом. Хроника Победы
Год выпуска: 2012
Жанр: История, документальный

Описание:
4 декабря части 2-й армии Вермахта прорвались в город Елец и установили над ним полный контроль. Елец – крупный железнодорожный узел. Захватив его, немцы могли разорвать ключевые коммуникации и лишить Красную армию и защитников Москвы необходимой помощи.
Замысел командования Юго-Западным фронтом предусматривал нанесение главного удара фронтовой оперативной группой на Ливны и вспомогательной ударной группой 13-й армии в обход Ельца с Северо-Запада. В ходе наступления планировалось окружение и уничтожение войск немецкой 2-й полевой армии и выход в тыл 2-й танковой армии, действовавшей против левого крыла Западного фронта. 6 декабря в наступление перешла ударная группа 13-й армии. Своими действиями она сковала противника и отвлекла его внимание от направления главного удара. 7 декабря нанесла удар фронтовая оперативная группа, выходя в тыл елецкой группировке. В этот же день войска 13-й армии завязали бои непосредственно за Елец, а 9 декабря освободили город. К 10 декабря советские соединения перерезали дорогу Ливны - Елец, лишив противника путей отхода на Запад. В ходе Елецкой наступательной операции Юго-Западный фронт нанёс серьёзное поражение 2-й армии и привлёк на себя часть сил 2-й танковой армии противника, оказав этим помощь Западному фронту, выполнявшему главную задачу в контрнаступлении под Москвой.

Режиссёр: Олег Четвериков

Продолжительность: ~ 00:24:09

Видеокодек: XVID
Битрейт видео: ~1647 kb/s
Размер кадра: 640 x 480
Качество видео: SATRip
Аудиокодек: MP3, 2ch.
Битрейт аудио: 128 kb/s
Формат : AVI
Формат/Информация : Audio Video Interleave
Размер файла : 308 Мбайт
Продолжительность : 24 м.
Общий поток : 1785 Кбит/сек
Программа кодирования : VirtualDubMod 1.5.10.3 | www.virtualdub-fr.org || (build 2550/release)
Библиотека кодирования : VirtualDubMod build 2550/release

Видео
Идентификатор : 0
Формат : MPEG-4 Visual
Профиль формата : Advanced Simple@L5
Параметр BVOP формата : 2
Параметр QPel формата : Нет
Параметр GMC формата : Без точки перехода
Параметр матрицы формата : Default (H.263)
Идентификатор кодека : XVID
Идентификатор кодека/Подсказка : XviD
Продолжительность : 24 м.
Битрейт : 1647 Кбит/сек
Ширина : 640 пикселей
Высота : 480 пикселей
Соотношение сторон : 4:3
Частота кадров : 25,000 кадров/сек
Цветовое пространство : YUV
Субдискретизация насыщенности : 4:2:0
Битовая глубина : 8 бит
Тип развёртки : Прогрессивная
Метод сжатия : С потерями
Бит/(Пиксели*Кадры) : 0.214
Размер потока : 285 Мбайт (92%)
Библиотека кодирования : XviD 1.2.1 (UTC 2008-12-04)

Аудио
Идентификатор : 1
Формат : MPEG Audio
Версия формата : Version 1
Профиль формата : Layer 3
Идентификатор кодека : 55
Идентификатор кодека/Подсказка : MP3
Продолжительность : 24 м.
Вид битрейта : Постоянный
Битрейт : 128 Кбит/сек
Каналы : 2 канала
Частота : 48,0 КГц
Метод сжатия : С потерями
Размер потока : 22,1 Мбайт (7%)
Выравнивание : Соединение по промежуткам
Продолжительность промежутка : 40 мс. (1,00 видеокадр)
Время предзагрузки промежутка : 504 мс.
Библиотека кодирования : LAME3.98r
Настройки программы : -m s -V 4 -q 2 -lowpass 17 -b 128
Скриншоты:

Время раздачи: 24/7. До первых 5 скачавших.
Rip by Bender
Перелом. Хроника Победы на NoNaMe Club
[NNM-Club.ru]_Perelom. Hronika Pobedyi. Seriya 08. (Eletskaya nastupatel'naya operatsiya) (2012).avi.torrent
 Торрент: Золотая раздача  Зарегистрирован
 
Зарегистрируйтесь и скачайте торрент!
12,3 KB

Примагнититься
 Зарегистрирован:   08 Окт 2012 20:45:56
 Размер:   308 MB  (
 Рейтинг:   4,8 (Голосов: 22)
 Поблагодарили:   83
 Проверка:   Оформление проверено модератором 08 Окт 2012 20:46:48
Как cкачать  ·  Как раздать  ·  Правильно оформить  ·  Поднять ратио!  

_________________
Уважаемые пользователи Клуба! От меня релизов больше не будет. Может быть, буду поддерживать «Обновляемые раздачи». Спасибо всем, кто благодарил меня и говорил/нажимал «Спасибо»!
Топик был перенесен из форума Вторая Мировая война в форум Архив Документалистики и TV

Причина переноса: http://nnmclub.to/forum/viewtopic.php?t=596759
svlesin
Показать сообщения:   
Начать новую тему   Ответить на тему    Торрент-трекер NNM-Club -> Архив торрентов -> Архив Документалистики и TV Часовой пояс: GMT + 3
Страница 1 из 1