Классический форум-трекер
canvas not supported
Нас вместе: 4 093 619

Джимми Хендрикс: Последние сутки / Jimi Hendrix: The Last 24 Hours (2004) DVDRip


 
 
RSS
Начать новую тему   Ответить на тему    Торрент-трекер NNM-Club -> Архив торрентов -> Архив Документалистики и TV
Автор Сообщение
farra64 ®
Реставратор Клуба
Стаж: 9 лет 3 мес.
Сообщений: 585
Ratio: 9,504
Раздал: 1,672 TB
Поблагодарили: 51955
100%
roody.gif
Джимми Хендрикс: Последние сутки / Jimi Hendrix: The Last 24 Hours (2004) DVDRip
Русское название: Джимми Хендрикс: Последние сутки
Оригинальное название: Jimi Hendrix: The Last 24 Hours
Режиссер: Майк Паркинсон
Год выпуска: 2004
Жанр: Документальный, Драма, Биография

Описание:
Эпоха молодежного бунта завершилась чередой ранних смертей. В начале 1970-х за безудержную эйфорию, в которую впало целое поколение, заплатили Джим Моррисон, Дженис Джоплин и Джими Хендрикс. Рок-н-ролл понесет еще немало ранних потерь, но эти были восприняты как грозное знамение.
Естественно, вокруг этих событий мгновенно наросла ветвистая мифология — кто, когда и что предчувствовал, какие оставил свидетельства, что утаил и почему. Если с Дженис и Джимом было все более или менее ясно (знатоки тут же скажут, что это не так), то у Джими в последний год его жизни было много проблем с властями. Музыкант открыто поддерживал движение «Черные пантеры», а по неподтвержденным данным помогал ему деньгами.
Уцепившись за отрывочные и противоречивые слухи о последнем дне Хендрикса, завершившемся то ли привычной передозировкой, то ли чем-то гораздо более гадким, авторы фильма решили воссоздать на экране свою версию событий. Она сформулирована логично, то есть не фантастичнее других. Авторы не потревожили основу мифа — «святую» троицу, состоящую из секса, наркотиков и рок-н-ролла. Но некоторые подробности вызывают нешуточный интерес и тянут на сенсацию…


Участники: Джимми Хендрикс и др.

Продолжительность: 01:02:00

Перевод: Двуголосый закадровый, профессиональный

Видеокодек: Xvid
Битрейт видео: ~1395 Кбит/сек
Размер кадра: 704х396
Качество видео: DVDRip
Аудиокодек: MP3, 2ch
Битрейт аудио: 128 Кбит/сек
1. MP3, 128 kbps, 2 ch - Русский двуголосый
2. MP3, 128 kbps, 2 ch - Английский оригинал
Общее
Полное имя : Hendrix - Last 24 Hours.avi
Формат : AVI
Формат/Информация : Audio Video Interleave
Размер файла : 743 Мбайт
Продолжительность : 1 ч. 2 м.
Общий поток : 1665 Кбит/сек
Название фильма : Hendrix - Last 24 Hours
Формат оригинала/Распространител : DVD5
Кодирование произвёл : DVDRip
Дата записи : 2004
Дата мастеринга : 24.01.09
Программа кодирования : VirtualDubMod 1.5.10.2 (build 2542/release) VirtualDubMod build 2542/release

Видео
Идентификатор : 0
Формат : MPEG-4 Visual
Профиль формата : Advanced Simple@L5
Параметр BVOP формата : 1
Параметр QPel формата : Нет
Параметр GMC формата : Без точки перехода
Параметр матрицы формата : Default (MPEG)
Идентификатор кодека : XVID
Идентификатор кодека/Подсказка : XviD
Продолжительность : 1 ч. 2 м.
Битрейт : 1395 Кбит/сек
Ширина : 704 пикселя
Высота : 396 пикселей
Соотношение сторон : 16:9
Частота кадров : 25,000 кадров/сек
Цветовое пространство : YUV
Субдискретизация насыщенности : 4:2:0
Битовая глубина : 8 бит
Тип развёртки : Прогрессивная
Метод сжатия : С потерями
Бит/(Пиксели*Кадры) : 0.200
Размер потока : 623 Мбайт (84%)
Библиотека кодирования : XviD 1.2.1 (UTC 2008-12-04)

Аудио #1
Идентификатор : 1
Формат : MPEG Audio
Версия формата : Version 1
Профиль формата : Layer 3
Режим : Joint stereo
Расширение режима : MS Stereo
Идентификатор кодека : 55
Идентификатор кодека/Подсказка : MP3
Продолжительность : 1 ч. 2 м.
Вид битрейта : Постоянный
Битрейт : 128 Кбит/сек
Каналы : 2 канала
Частота : 44,1 КГц
Метод сжатия : С потерями
Размер потока : 57,1 Мбайт (8%)
Выравнивание : Разделение по промежуткам
Продолжительность промежутка : 40 мс. (1,00 видеокадр)
Время предзагрузки промежутка : 500 мс.
Библиотека кодирования : LAME3.92
Настройки программы : -m j -V 1 -q 2 -lowpass 17.5 -b 128
Язык : Russian

Аудио #2
Идентификатор : 2
Формат : MPEG Audio
Версия формата : Version 1
Профиль формата : Layer 3
Режим : Joint stereo
Расширение режима : MS Stereo
Идентификатор кодека : 55
Идентификатор кодека/Подсказка : MP3
Продолжительность : 1 ч. 2 м.
Вид битрейта : Постоянный
Битрейт : 128 Кбит/сек
Каналы : 2 канала
Частота : 44,1 КГц
Метод сжатия : С потерями
Размер потока : 57,1 Мбайт (8%)
Выравнивание : Разделение по промежуткам
Продолжительность промежутка : 40 мс. (1,00 видеокадр)
Время предзагрузки промежутка : 500 мс.
Библиотека кодирования : LAME3.92
Настройки программы : -m j -V 1 -q 2 -lowpass 17.5 -b 128

Скриншоты:



Время раздачи: 24/7 До 5-ти скачавших
[NNM-Club.ru]_Hendrix - Last 24 Hours.avi.torrent
 Торрент: Платиновая раздача  Зарегистрирован
 
Скачать


Примагнититься
 Зарегистрирован:   09 Окт 2012 18:35:50
 Размер:   743 MB  (
 Рейтинг:   4,5 (Голосов: 13)
 Поблагодарили:   37
 Проверка:   Оформление проверено модератором 10 Окт 2012 16:41:23
Как cкачать  ·  Как раздать  ·  Правильно оформить  ·  Поднять ратио!  
leo_tsi
Стаж: 9 лет 10 мес.
Сообщений: 36
Ratio: 2,218
100%
mexico.gif
Большое спасибо.
Топик был перенесен из форума Посвящение искусству в форум Архив Документалистики и TV

Причина переноса: Нет сида более 30дней
МиSHа
Показать сообщения:   
Начать новую тему   Ответить на тему    Торрент-трекер NNM-Club -> Архив торрентов -> Архив Документалистики и TV Часовой пояс: GMT + 3
Страница 1 из 1