Классический форум-трекер
canvas not supported
Нас вместе: 4 077 961

Интерны(2012) SATRip (серии 127-140)


Страницы:   Пред.  1, 2, 3, 4, 5, 6, 7  След. 
 
RSS
Начать новую тему   Ответить на тему    Торрент-трекер NNM-Club -> Отечественные сериалы -> Интерны
Автор Сообщение
fanDYNAMO ®
Модератор Музыки
RG Music
 
Стаж: 7 лет 4 мес.
Сообщений: 3546
Ratio: 517,196
Раздал: 36,1 TB
Поблагодарили: 84239
100%
Откуда: Черновцы
ukraine.gif
Интерны (2012) HQ SATRip

Режиссер / Телекомпания Радда Новикова / ТНТ
Русское название: Интерны
Год выпуска: 2012
Жанр: Комедия, Семейный


Дата российской премьеры: 10.10.2012

Актеры: Иван Охлобыстин, Кристина Асмус, Илья Глинников, Александр Ильин мл., Дмитрий Шаракоис, Вадим Демчог, Светлана Камынина, Светлана Пермякова, Один Ланд Байрон

Описание фильма:
Жизнь обычной многопрофильной больницы - сплошная рутина. Ненормированный рабочий день, тяжелая, неблагодарная работа, а также инопланетяне, электрики, спивающийся венеролог, озабоченная медсестра, больной-эксгибиционист, ручная крыса, четыре интерна, которые все время расстраивают своего руководителя... Как Иван Охлобыстин в лице доктора Быкова справится со всей этой суетой?

Продолжительность: ~00:25:00
Качество видео: SATRip

Видеокодек: Xvid | DivX
Битрейт видео: ~1650 kbit/s
Размер кадра: 720x400
Аудиокодек: MP3
Битрейт аудио: 128 kbit/s
Описание: Варя и Люба зарегистрировались на сайте знакомств. И об этом узнали Лобанов и Романенко. Филу достался сильно пожилой пациент, который до сих пор проявляет сексуальную активность. А Купитмана кто-то жестоко разыграл. Быков уверяет, что это не он, и ищет виновника розыгрыша...

Продолжительность: 00:24:24

Видеокодек: Xvid
Битрейт видео: ~1600 kbps
Размер кадра: 720x400
Качество видео: HQ SATRip
Аудиокодек: MP3
Битрейт аудио: 128 Кбит/с

General
Complete name : D:\Фильмы и сериалы\Интерны\127.avi
Format : AVI
Format/Info : Audio Video Interleave
File size : 311 MiB
Duration : 24mn 24s
Overall bit rate : 1 779 Kbps
Writing library : VirtualDub build 34807/release

Video
ID : 0
Format : MPEG-4 Visual
Format profile : Advanced Simple@L5
Format settings, BVOP : 2
Format settings, QPel : No
Format settings, GMC : No warppoints
Format settings, Matrix : Default (H.263)
Muxing mode : Packed bitstream
Codec ID : XVID
Codec ID/Hint : XviD
Duration : 24mn 24s
Bit rate : 1 641 Kbps
Width : 720 pixels
Height : 400 pixels
Display aspect ratio : 16:9
Frame rate : 25.000 fps
Color space : YUV
Chroma subsampling : 4:2:0
Bit depth : 8 bits
Scan type : Progressive
Compression mode : Lossy
Bits/(Pixel*Frame) : 0.228
Stream size : 287 MiB (92%)
Writing library : XviD 64

Audio
ID : 1
Format : MPEG Audio
Format version : Version 1
Format profile : Layer 3
Mode : Joint stereo
Mode extension : MS Stereo
Codec ID : 55
Codec ID/Hint : MP3
Duration : 24mn 24s
Bit rate mode : Constant
Bit rate : 128 Kbps
Channel(s) : 2 channels
Sampling rate : 48.0 KHz
Compression mode : Lossy
Stream size : 22.3 MiB (7%)
Alignment : Split accross interleaves
Interleave, duration : 40 ms (1.00 video frame)
Interleave, preload duration : 500 ms
Описание: Бывшая жена Купитмана, бой-баба и женщина-вамп, решила
отсудить у него половину квартиры. Купитман скрывается от нее с помощью Быкова, Лобанова и
Романенко. У Вари - аппендицит, а анестезирует ее красавец-грузин Давид. Черноус впадает в
любовный ступор, но Люба рассказывает Варе страшные факты про ее новое увлечение...

Продолжительность: 00:24:58

Видеокодек: Xvid
Битрейт видео: ~1600 kbps
Размер кадра: 720x400
Качество видео: HQ SATRip
Аудиокодек: MP3
Битрейт аудио: 128 Кбит/с
General
Complete name : D:\Фильмы и сериалы\Интерны\128.avi
Format : AVI
Format/Info : Audio Video Interleave
File size : 318 MiB
Duration : 24mn 58s
Overall bit rate : 1 779 Kbps
Writing library : VirtualDub build 34807/release

Video
ID : 0
Format : MPEG-4 Visual
Format profile : Advanced Simple@L5
Format settings, BVOP : 2
Format settings, QPel : No
Format settings, GMC : No warppoints
Format settings, Matrix : Default (H.263)
Muxing mode : Packed bitstream
Codec ID : XVID
Codec ID/Hint : XviD
Duration : 24mn 58s
Bit rate : 1 642 Kbps
Width : 720 pixels
Height : 400 pixels
Display aspect ratio : 16:9
Frame rate : 25.000 fps
Color space : YUV
Chroma subsampling : 4:2:0
Bit depth : 8 bits
Scan type : Progressive
Compression mode : Lossy
Bits/(Pixel*Frame) : 0.228
Stream size : 293 MiB (92%)
Writing library : XviD 64

Audio
ID : 1
Format : MPEG Audio
Format version : Version 1
Format profile : Layer 3
Mode : Joint stereo
Mode extension : MS Stereo
Codec ID : 55
Codec ID/Hint : MP3
Duration : 24mn 58s
Bit rate mode : Constant
Bit rate : 128 Kbps
Channel(s) : 2 channels
Sampling rate : 48.0 KHz
Compression mode : Lossy
Stream size : 22.9 MiB (7%)
Alignment : Split accross interleaves
Interleave, duration : 40 ms (1.00 video frame)
Interleave, preload duration : 500 ms
Описание: Жена Лобанова отшивает Фила: последний ужин, последний танец и
последняя просьба от Фила: пусть в больнице все думают, что это он ее бросил. Лобанов отправляется в
приемное отделение – навечно, а Романенко становится лечащим врачом Вари. Раздевайтесь!

Продолжительность: 00:23:58

Видеокодек: DivX 5
Битрейт видео: ~1600 kbps
Размер кадра: 720x400
Качество видео: HQ SATRip
Аудиокодек: MP3
Битрейт аудио: 128 Кбит/с
General
Complete name : D:\Фильмы и сериалы\Интерны\129.avi
Format : AVI
Format/Info : Audio Video Interleave
File size : 306 MiB
Duration : 23mn 58s
Overall bit rate : 1 787 Kbps
Writing application : TMPGEnc Video Mastering Works 5 Version. 5.0.6.38
Writing library : TMPGEnc Video Mastering Works 5 Version. 5.0.6.38

Video
ID : 0
Format : MPEG-4 Visual
Format settings, BVOP : 1
Format settings, QPel : No
Format settings, GMC : No warppoints
Format settings, Matrix : Default (H.263)
Muxing mode : Packed bitstream
Codec ID : DX50
Codec ID/Hint : DivX 5
Duration : 23mn 58s
Bit rate : 1 651 Kbps
Width : 720 pixels
Height : 400 pixels
Display aspect ratio : 16:9
Frame rate : 25.000 fps
Color space : YUV
Chroma subsampling : 4:2:0
Bit depth : 8 bits
Scan type : Progressive
Compression mode : Lossy
Bits/(Pixel*Frame) : 0.229
Stream size : 283 MiB (92%)
Writing library : DivX 6.8.5 (UTC 2009-08-20)

Audio
ID : 1
Format : MPEG Audio
Format version : Version 1
Format profile : Layer 3
Mode : Joint stereo
Mode extension : MS Stereo
Codec ID : 55
Codec ID/Hint : MP3
Duration : 23mn 58s
Bit rate mode : Constant
Bit rate : 128 Kbps
Channel(s) : 2 channels
Sampling rate : 48.0 KHz
Compression mode : Lossy
Stream size : 21.9 MiB (7%)
Alignment : Split accross interleaves
Interleave, duration : 250 ms (6.25 video frames)
Interleave, preload duration : 205 ms
Writing library : LAME3.98.2
Описание: Лобанов задолжал санитарам крупную сумму денег, и они поставили его «на
счетчик». Романенко и Фил выясняют, кого из них Быков любит больше. А Варя пригласила анестезиолога
Давида на свидание. Он согласился, а Варя испугалась, что она «не его уровень»…

Продолжительность: 00:23:57

Видеокодек: Xvid
Битрейт видео: ~1600 kbps
Размер кадра: 720x400
Качество видео: HQ SATRip
Аудиокодек: MP3
Битрейт аудио: 128 Кбит/с
General
Complete name : D:\Фильмы и сериалы\Интерны\130.avi
Format : AVI
Format/Info : Audio Video Interleave
File size : 305 MiB
Duration : 23mn 57s
Overall bit rate : 1 780 Kbps
Writing library : VirtualDub build 34807/release

Video
ID : 0
Format : MPEG-4 Visual
Format profile : Advanced Simple@L5
Format settings, BVOP : 2
Format settings, QPel : No
Format settings, GMC : No warppoints
Format settings, Matrix : Default (H.263)
Muxing mode : Packed bitstream
Codec ID : XVID
Codec ID/Hint : XviD
Duration : 23mn 57s
Bit rate : 1 642 Kbps
Width : 720 pixels
Height : 400 pixels
Display aspect ratio : 16:9
Frame rate : 25.000 fps
Color space : YUV
Chroma subsampling : 4:2:0
Bit depth : 8 bits
Scan type : Progressive
Compression mode : Lossy
Bits/(Pixel*Frame) : 0.228
Stream size : 281 MiB (92%)
Writing library : XviD 64

Audio
ID : 1
Format : MPEG Audio
Format version : Version 1
Format profile : Layer 3
Mode : Joint stereo
Mode extension : MS Stereo
Codec ID : 55
Codec ID/Hint : MP3
Duration : 23mn 57s
Bit rate mode : Constant
Bit rate : 128 Kbps
Channel(s) : 2 channels
Sampling rate : 48.0 KHz
Compression mode : Lossy
Stream size : 21.9 MiB (7%)
Alignment : Split accross interleaves
Interleave, duration : 40 ms (1.00 video frame)
Interleave, preload duration : 500 ms
Описание: Купитман тоже решил стать наставником Интернов. Быков "для тренировки" выделил ему двух своих подопечных - Семена и Глеба. А Варя услышала, что Андрей Евгеньевич всей больнице рассказывает разные гадости об интернах, поэтому начала переживать, что её выставят в дурном свете перед Давидом. А в это время Фил решил помочь рабочим-гастарбайтерам, у которых нет не то что прописки и полиса, а даже даты рождения.

Продолжительность: 00:25:11

Видеокодек: Xvid
Битрейт видео: ~1600 kbps
Размер кадра: 720x400
Качество видео: HQ SATRip
Аудиокодек: MP3
Битрейт аудио: 128 Кбит/с
General
Complete name : D:\Фильмы и сериалы\Интерны\131.avi
Format : AVI
Format/Info : Audio Video Interleave
File size : 321 MiB
Duration : 25mn 11s
Overall bit rate : 1 780 Kbps
Writing library : VirtualDub build 34807/release

Video
ID : 0
Format : MPEG-4 Visual
Format profile : Advanced Simple@L5
Format settings, BVOP : 2
Format settings, QPel : No
Format settings, GMC : No warppoints
Format settings, Matrix : Default (H.263)
Muxing mode : Packed bitstream
Codec ID : XVID
Codec ID/Hint : XviD
Duration : 25mn 11s
Bit rate : 1 642 Kbps
Width : 720 pixels
Height : 400 pixels
Display aspect ratio : 16:9
Frame rate : 25.000 fps
Color space : YUV
Chroma subsampling : 4:2:0
Bit depth : 8 bits
Scan type : Progressive
Compression mode : Lossy
Bits/(Pixel*Frame) : 0.228
Stream size : 296 MiB (92%)
Writing library : XviD 64

Audio
ID : 1
Format : MPEG Audio
Format version : Version 1
Format profile : Layer 3
Mode : Joint stereo
Mode extension : MS Stereo
Codec ID : 55
Codec ID/Hint : MP3
Duration : 25mn 11s
Bit rate mode : Constant
Bit rate : 128 Kbps
Channel(s) : 2 channels
Sampling rate : 48.0 KHz
Compression mode : Lossy
Stream size : 23.1 MiB (7%)
Alignment : Split accross interleaves
Interleave, duration : 40 ms (1.00 video frame)
Interleave, preload duration : 500 ms
Описание: Быков решает помирить Лобанова и Фила старым русским способом. Романенко не получил премию и объявил голодовку в кабинете Кисегач. А Варю попросили передать подарок для одной пациентки. Подарок оказался интимного характера...

Продолжительность: 00:24:04

Видеокодек: Xvid
Битрейт видео: ~1590 kbps
Размер кадра: 720x400
Качество видео: HQ SATRip
Аудиокодек: MP3
Битрейт аудио: 128 Кбит/с
General
Complete name : D:\Фильмы и сериалы\Интерны\132.avi
Format : AVI
Format/Info : Audio Video Interleave
File size : 306 MiB
Duration : 24mn 4s
Overall bit rate : 1 780 Kbps
Writing library : VirtualDub build 34807/release

Video
ID : 0
Format : MPEG-4 Visual
Format profile : Advanced Simple@L5
Format settings, BVOP : 2
Format settings, QPel : No
Format settings, GMC : No warppoints
Format settings, Matrix : Default (H.263)
Muxing mode : Packed bitstream
Codec ID : XVID
Codec ID/Hint : XviD
Duration : 24mn 4s
Bit rate : 1 642 Kbps
Width : 720 pixels
Height : 400 pixels
Display aspect ratio : 16:9
Frame rate : 25.000 fps
Color space : YUV
Chroma subsampling : 4:2:0
Bit depth : 8 bits
Scan type : Progressive
Compression mode : Lossy
Bits/(Pixel*Frame) : 0.228
Stream size : 283 MiB (92%)
Writing library : XviD 64

Audio
ID : 1
Format : MPEG Audio
Format version : Version 1
Format profile : Layer 3
Mode : Joint stereo
Mode extension : MS Stereo
Codec ID : 55
Codec ID/Hint : MP3
Duration : 24mn 3s
Bit rate mode : Constant
Bit rate : 128 Kbps
Channel(s) : 2 channels
Sampling rate : 48.0 KHz
Compression mode : Lossy
Stream size : 22.0 MiB (7%)
Alignment : Split accross interleaves
Interleave, duration : 40 ms (1.00 video frame)
Interleave, preload duration : 500 ms
Описание: Купитман намекает Быкову, что тот живет скучной сексуальной жизнью. Быков требует от Кисегач разнообразия в постели. Чтобы понравиться Давиду, Варя начинает интересоваться футболом. Вот только с командой Черноус ошиблась и попутала "мясо" с "конями". А Романенко и Лобанов решили напугать Фила, который боится фильмов ужасов...

Продолжительность: 00:24:51

Видеокодек: Xvid
Битрейт видео: ~1590 kbps
Размер кадра: 720x400
Качество видео: HQ SATRip
Аудиокодек: MP3
Битрейт аудио: 128 Кбит/с
General
Complete name : D:\Фильмы и сериалы\Интерны\133.avi
Format : AVI
Format/Info : Audio Video Interleave
File size : 316 MiB
Duration : 24mn 50s
Overall bit rate : 1 779 Kbps
Writing library : VirtualDub build 34807/release

Video
ID : 0
Format : MPEG-4 Visual
Format profile : Advanced Simple@L5
Format settings, BVOP : 2
Format settings, QPel : No
Format settings, GMC : No warppoints
Format settings, Matrix : Default (H.263)
Muxing mode : Packed bitstream
Codec ID : XVID
Codec ID/Hint : XviD
Duration : 24mn 50s
Bit rate : 1 641 Kbps
Width : 720 pixels
Height : 400 pixels
Display aspect ratio : 16:9
Frame rate : 25.000 fps
Color space : YUV
Chroma subsampling : 4:2:0
Bit depth : 8 bits
Scan type : Progressive
Compression mode : Lossy
Bits/(Pixel*Frame) : 0.228
Stream size : 292 MiB (92%)
Writing library : XviD 64

Audio
ID : 1
Format : MPEG Audio
Format version : Version 1
Format profile : Layer 3
Mode : Joint stereo
Mode extension : MS Stereo
Codec ID : 55
Codec ID/Hint : MP3
Duration : 24mn 50s
Bit rate mode : Constant
Bit rate : 128 Kbps
Channel(s) : 2 channels
Sampling rate : 48.0 KHz
Compression mode : Lossy
Stream size : 22.7 MiB (7%)
Alignment : Split accross interleaves
Interleave, duration : 40 ms (1.00 video frame)
Interleave, preload duration : 500 ms
Описание: Купитман ищет себе девушку среди медсестер и обращается к Любе. Фил на примере Лобанова и Романенко хочет изучить искусство "отмазок". А Быков решает помочь Варе в отношениях с Давидом. Но из-за недоразумения ему придется делать предложение руки и сердца Кисегач...

Продолжительность: 00:24:38

Видеокодек: Xvid
Битрейт видео: ~1600 kbps
Размер кадра: 720x400
Качество видео: HQ SATRip
Аудиокодек: MP3
Битрейт аудио: 128 Кбит/с
General
Complete name : D:\Фильмы и сериалы\Интерны\134.avi
Format : AVI
Format/Info : Audio Video Interleave
File size : 314 MiB
Duration : 24mn 38s
Overall bit rate : 1 779 Kbps
Writing library : VirtualDub build 34807/release

Video
ID : 0
Format : MPEG-4 Visual
Format profile : Advanced Simple@L5
Format settings, BVOP : 2
Format settings, QPel : No
Format settings, GMC : No warppoints
Format settings, Matrix : Default (H.263)
Muxing mode : Packed bitstream
Codec ID : XVID
Codec ID/Hint : XviD
Duration : 24mn 38s
Bit rate : 1 642 Kbps
Width : 720 pixels
Height : 400 pixels
Display aspect ratio : 16:9
Frame rate : 25.000 fps
Color space : YUV
Chroma subsampling : 4:2:0
Bit depth : 8 bits
Scan type : Progressive
Compression mode : Lossy
Bits/(Pixel*Frame) : 0.228
Stream size : 289 MiB (92%)
Writing library : XviD 64

Audio
ID : 1
Format : MPEG Audio
Format version : Version 1
Format profile : Layer 3
Mode : Joint stereo
Mode extension : MS Stereo
Codec ID : 55
Codec ID/Hint : MP3
Duration : 24mn 38s
Bit rate mode : Constant
Bit rate : 128 Kbps
Channel(s) : 2 channels
Sampling rate : 48.0 KHz
Compression mode : Lossy
Stream size : 22.6 MiB (7%)
Alignment : Split accross interleaves
Interleave, duration : 40 ms (1.00 video frame)
Interleave, preload duration : 500 ms
Описание: Кисегач так и не дождалась предложения от Быкова, но выяснить отношения крайне сложно. Лобанов и Романенко определяют, кто из них двоих тупее. А в лысого мачо Давида влюбилась Варина пациентка.

Продолжительность: 00:24:48

Видеокодек: Xvid
Битрейт видео: ~1600 kbps
Размер кадра: 720x400
Качество видео: HQ SATRip
Аудиокодек: MP3
Битрейт аудио: 128 Кбит/с
General
Complete name : D:\Фильмы и сериалы\Интерны\135.avi
Format : AVI
Format/Info : Audio Video Interleave
File size : 315 MiB
Duration : 24mn 47s
Overall bit rate : 1 778 Kbps
Writing library : VirtualDub build 34807/release

Video
ID : 0
Format : MPEG-4 Visual
Format profile : Advanced Simple@L5
Format settings, BVOP : 2
Format settings, QPel : No
Format settings, GMC : No warppoints
Format settings, Matrix : Default (H.263)
Muxing mode : Packed bitstream
Codec ID : XVID
Codec ID/Hint : XviD
Duration : 24mn 47s
Bit rate : 1 640 Kbps
Width : 720 pixels
Height : 400 pixels
Display aspect ratio : 16:9
Frame rate : 25.000 fps
Color space : YUV
Chroma subsampling : 4:2:0
Bit depth : 8 bits
Scan type : Progressive
Compression mode : Lossy
Bits/(Pixel*Frame) : 0.228
Stream size : 291 MiB (92%)
Writing library : XviD 64

Audio
ID : 1
Format : MPEG Audio
Format version : Version 1
Format profile : Layer 3
Mode : Joint stereo
Mode extension : MS Stereo
Codec ID : 55
Codec ID/Hint : MP3
Duration : 24mn 47s
Bit rate mode : Constant
Bit rate : 128 Kbps
Channel(s) : 2 channels
Sampling rate : 48.0 KHz
Compression mode : Lossy
Stream size : 22.7 MiB (7%)
Alignment : Split accross interleaves
Interleave, duration : 40 ms (1.00 video frame)
Interleave, preload duration : 500 ms
Описание: Кисегач предложила Варе стать лицом больницы. Теперь ее фото должно красоваться на рекламных буклетах, вот только коллеги отреагировали на это как-то странно. Глеба домогается пациентка, но у нее очень опасный муж. А у Фила в метро вытащили кошелек и он отправился писать заявление в полицию...

Продолжительность: 00:24:48

Видеокодек: DivX
Битрейт видео: ~1650 kbps
Размер кадра: 720x400
Качество видео: HQ SATRip
Аудиокодек: MP3
Битрейт аудио: 128 Кбит/с
General
Complete name : D:\Фильмы и сериалы\Интерны\136.avi
Format : AVI
Format/Info : Audio Video Interleave
File size : 318 MiB
Duration : 24mn 50s
Overall bit rate : 1 790 Kbps
Writing application : VirtualDubModRus 1.5.10.2 (build 2542/release)
Writing library : VirtualDubMod build 2542/release

Video
ID : 0
Format : MPEG-4 Visual
Format settings, BVOP : 1
Format settings, QPel : No
Format settings, GMC : No warppoints
Format settings, Matrix : Default (H.263)
Muxing mode : Packed bitstream
Codec ID : DX50
Codec ID/Hint : DivX 5
Duration : 24mn 50s
Bit rate : 1 652 Kbps
Width : 720 pixels
Height : 400 pixels
Display aspect ratio : 16:9
Frame rate : 25.000 fps
Color space : YUV
Chroma subsampling : 4:2:0
Bit depth : 8 bits
Scan type : Progressive
Compression mode : Lossy
Bits/(Pixel*Frame) : 0.229
Stream size : 294 MiB (92%)
Writing library : DivX 6.8.5 (UTC 2009-08-20)

Audio
ID : 1
Format : MPEG Audio
Format version : Version 1
Format profile : Layer 3
Mode : Joint stereo
Mode extension : MS Stereo
Codec ID : 55
Codec ID/Hint : MP3
Duration : 24mn 50s
Bit rate mode : Constant
Bit rate : 128 Kbps
Channel(s) : 2 channels
Sampling rate : 48.0 KHz
Compression mode : Lossy
Stream size : 22.7 MiB (7%)
Alignment : Split accross interleaves
Interleave, duration : 40 ms (1.00 video frame)
Interleave, preload duration : 500 ms
Описание: У Лобанова - день рождения, но ему нужно только внимание бывшей жены Оли. Любе попался пациент с "черным глазом". А у Вари с Давидом наконец-то был секс. И девушка решила обсудить это событие со всей больницей.

Продолжительность: 00:24:53

Видеокодек: XviD
Битрейт видео: ~1650 kbps
Размер кадра: 720x400
Качество видео: HQ SATRip
Аудиокодек: MP3
Битрейт аудио: 128 Кбит/с
General
Complete name : D:\Фильмы и сериалы\Интерны\137.avi
Format : AVI
Format/Info : Audio Video Interleave
File size : 317 MiB
Duration : 24mn 53s
Overall bit rate : 1 778 Kbps
Writing library : VirtualDub build 34807/release

Video
ID : 0
Format : MPEG-4 Visual
Format profile : Advanced Simple@L5
Format settings, BVOP : 2
Format settings, QPel : No
Format settings, GMC : No warppoints
Format settings, Matrix : Default (H.263)
Muxing mode : Packed bitstream
Codec ID : XVID
Codec ID/Hint : XviD
Duration : 24mn 53s
Bit rate : 1 641 Kbps
Width : 720 pixels
Height : 400 pixels
Display aspect ratio : 16:9
Frame rate : 25.000 fps
Color space : YUV
Chroma subsampling : 4:2:0
Bit depth : 8 bits
Scan type : Progressive
Compression mode : Lossy
Bits/(Pixel*Frame) : 0.228
Stream size : 292 MiB (92%)
Writing library : XviD 64

Audio
ID : 1
Format : MPEG Audio
Format version : Version 1
Format profile : Layer 3
Mode : Joint stereo
Mode extension : MS Stereo
Codec ID : 55
Codec ID/Hint : MP3
Duration : 24mn 53s
Bit rate mode : Constant
Bit rate : 128 Kbps
Channel(s) : 2 channels
Sampling rate : 48.0 KHz
Compression mode : Lossy
Stream size : 22.8 MiB (7%)
Alignment : Split accross interleaves
Interleave, duration : 40 ms (1.00 video frame)
Interleave, preload duration : 500 ms
Описание: Лобанов помирился с Олей и съехал от Романенко. Кисегач надоели насмешки над ее носом, и она решила сделать пластическую операцию. А Лобанов и Оля заключают договор, который регламентирует их новую совместную жизнь. Но Семен не может жить по этим правилам..

Продолжительность: 00:24:36

Видеокодек: XviD
Битрейт видео: ~1650 kbps
Размер кадра: 720x400
Качество видео: HQ SATRip
Аудиокодек: MP3
Битрейт аудио: 128 Кбит/с
General
Complete name : D:\Фильмы и сериалы\Интерны\138.avi
Format : AVI
Format/Info : Audio Video Interleave
File size : 313 MiB
Duration : 24mn 35s
Overall bit rate : 1 779 Kbps
Writing library : VirtualDub build 34807/release

Video
ID : 0
Format : MPEG-4 Visual
Format profile : Advanced Simple@L5
Format settings, BVOP : 2
Format settings, QPel : No
Format settings, GMC : No warppoints
Format settings, Matrix : Default (H.263)
Muxing mode : Packed bitstream
Codec ID : XVID
Codec ID/Hint : XviD
Duration : 24mn 35s
Bit rate : 1 641 Kbps
Width : 720 pixels
Height : 400 pixels
Display aspect ratio : 16:9
Frame rate : 25.000 fps
Color space : YUV
Chroma subsampling : 4:2:0
Bit depth : 8 bits
Scan type : Progressive
Compression mode : Lossy
Bits/(Pixel*Frame) : 0.228
Stream size : 289 MiB (92%)
Writing library : XviD 64

Audio
ID : 1
Format : MPEG Audio
Format version : Version 1
Format profile : Layer 3
Mode : Joint stereo
Mode extension : MS Stereo
Codec ID : 55
Codec ID/Hint : MP3
Duration : 24mn 35s
Bit rate mode : Constant
Bit rate : 128 Kbps
Channel(s) : 2 channels
Sampling rate : 48.0 KHz
Compression mode : Lossy
Stream size : 22.5 MiB (7%)
Alignment : Split accross interleaves
Interleave, duration : 40 ms (1.00 video frame)
Interleave, preload duration : 500 ms
Описание: Варя заметила, что Давид и Люба недолюбливают друг друга. Она узнает, что причина этому - давняя ссора. Купитману предложили новую хорошую работу, но в Рязани. Лобанов, Романенко и Фил решили снимать квартиру втроем. В квартире всего две комнаты, а каждый хочет жить отдельно от остальных...

Продолжительность: 00:24:52

Видеокодек: XviD
Битрейт видео: ~1650 kbps
Размер кадра: 720x400
Качество видео: HQ SATRip
Аудиокодек: MP3
Битрейт аудио: 128 Кбит/с
General
Complete name : D:\Фильмы и сериалы\Интерны\139.avi
Format : AVI
Format/Info : Audio Video Interleave
File size : 316 MiB
Duration : 24mn 52s
Overall bit rate : 1 778 Kbps
Writing library : VirtualDub build 34807/release

Video
ID : 0
Format : MPEG-4 Visual
Format profile : Advanced Simple@L5
Format settings, BVOP : 2
Format settings, QPel : No
Format settings, GMC : No warppoints
Format settings, Matrix : Default (H.263)
Muxing mode : Packed bitstream
Codec ID : XVID
Codec ID/Hint : XviD
Duration : 24mn 52s
Bit rate : 1 640 Kbps
Width : 720 pixels
Height : 400 pixels
Display aspect ratio : 16:9
Frame rate : 25.000 fps
Color space : YUV
Chroma subsampling : 4:2:0
Bit depth : 8 bits
Scan type : Progressive
Compression mode : Lossy
Bits/(Pixel*Frame) : 0.228
Stream size : 292 MiB (92%)
Writing library : XviD 64

Audio
ID : 1
Format : MPEG Audio
Format version : Version 1
Format profile : Layer 3
Mode : Joint stereo
Mode extension : MS Stereo
Codec ID : 55
Codec ID/Hint : MP3
Duration : 24mn 52s
Bit rate mode : Constant
Bit rate : 128 Kbps
Channel(s) : 2 channels
Sampling rate : 48.0 KHz
Compression mode : Lossy
Stream size : 22.8 MiB (7%)
Alignment : Split accross interleaves
Interleave, duration : 40 ms (1.00 video frame)
Interleave, preload duration : 500 ms
Описание: Быков и Кисегач идут на свадьбу коллеги. Быков просит интернов вызвать его со свадьбы срочным звонком, а Кисегач просит их этого не делать. Интерны разрываются между двумя начальниками, а Быков и Кисегач жутко ссорятся на свадьбе. В итоге Быков уезжает со свадьбы и попадает в аварию...

Продолжительность: 00:24:35

Видеокодек: XviD
Битрейт видео: ~1650 kbps
Размер кадра: 720x400
Качество видео: HQ SATRip
Аудиокодек: MP3
Битрейт аудио: 128 Кбит/с
General
Complete name : D:\Фильмы и сериалы\Интерны\140.avi
Format : AVI
Format/Info : Audio Video Interleave
File size : 313 MiB
Duration : 24mn 35s
Overall bit rate : 1 779 Kbps
Writing library : VirtualDub build 34807/release

Video
ID : 0
Format : MPEG-4 Visual
Format profile : Advanced Simple@L5
Format settings, BVOP : 2
Format settings, QPel : No
Format settings, GMC : No warppoints
Format settings, Matrix : Default (H.263)
Muxing mode : Packed bitstream
Codec ID : XVID
Codec ID/Hint : XviD
Duration : 24mn 35s
Bit rate : 1 641 Kbps
Width : 720 pixels
Height : 400 pixels
Display aspect ratio : 16:9
Frame rate : 25.000 fps
Color space : YUV
Chroma subsampling : 4:2:0
Bit depth : 8 bits
Scan type : Progressive
Compression mode : Lossy
Bits/(Pixel*Frame) : 0.228
Stream size : 289 MiB (92%)
Writing library : XviD 64

Audio
ID : 1
Format : MPEG Audio
Format version : Version 1
Format profile : Layer 3
Mode : Joint stereo
Mode extension : MS Stereo
Codec ID : 55
Codec ID/Hint : MP3
Duration : 24mn 35s
Bit rate mode : Constant
Bit rate : 128 Kbps
Channel(s) : 2 channels
Sampling rate : 48.0 KHz
Compression mode : Lossy
Stream size : 22.5 MiB (7%)
Alignment : Split accross interleaves
Interleave, duration : 40 ms (1.00 video frame)
Interleave, preload duration : 500 ms
Скриншоты:



RIP by: ANDROZZZ
Время раздачи: C 09:00 до 23:00 (UTC\GTM+2)
[NNM-Club.ru]_Internyi.torrent
 Торрент: Платиновая раздача  Зарегистрирован
 
Скачать


 Зарегистрирован:   01 Ноя 2012 12:53:39
 Размер:   4,29 GB  (
 Рейтинг:   4,7 (Голосов: 432)
 Поблагодарили:   1537
 Проверка:   Оформление проверено модератором 01 Ноя 2012 13:16:57
Как cкачать  ·  Как раздать  ·  Правильно оформить  ·  Поднять ратио!  

_________________
Исправил(а) релиз - напиши в ЛС
На своих одиночных раздачах минимум месяц! Пишите в ЛС, если будет возможность - вернусь на раздачу!
Alecard
Стаж: 9 лет 5 мес.
Сообщений: 9
Ratio: 8,483
100%
netherlands.gif
А почему такое может быть: сидов 115, пиров 64, а закачка не идет? В настройках ничего не менял, вообще!
fanDYNAMO ®
Модератор Музыки
RG Music
 
Стаж: 7 лет 4 мес.
Сообщений: 3546
Ratio: 517,196
Раздал: 36,1 TB
Поблагодарили: 84239
100%
Откуда: Черновцы
ukraine.gif
Внимание! 29.10.2012 - добавлена 137 серия (3-й сезон - 17 серия)! Перекачайте торрент-файл!

_________________
Исправил(а) релиз - напиши в ЛС
На своих одиночных раздачах минимум месяц! Пишите в ЛС, если будет возможность - вернусь на раздачу!
gureff
Стаж: 9 лет 4 мес.
Сообщений: 57
Ratio: 21,832
Раздал: 10,23 TB
100%
Без рекламы смотреть - одно удовольствие!!! Отличное качество рипа! Спасибо! =)
fanDYNAMO ®
Модератор Музыки
RG Music
 
Стаж: 7 лет 4 мес.
Сообщений: 3546
Ratio: 517,196
Раздал: 36,1 TB
Поблагодарили: 84239
100%
Откуда: Черновцы
ukraine.gif
Внимание! 30.10.2012 - добавлена 138 серия (3-й сезон - 18 серия)! Перекачайте торрент-файл!

_________________
Исправил(а) релиз - напиши в ЛС
На своих одиночных раздачах минимум месяц! Пишите в ЛС, если будет возможность - вернусь на раздачу!
VinVlad
Стаж: 9 лет 11 мес.
Сообщений: 15
Ratio: 9,643
100%
russia.gif
138 серия без финала
fanDYNAMO ®
Модератор Музыки
RG Music
 
Стаж: 7 лет 4 мес.
Сообщений: 3546
Ratio: 517,196
Раздал: 36,1 TB
Поблагодарили: 84239
100%
Откуда: Черновцы
ukraine.gif
VinVlad писал(а): Перейти к сообщению
138 серия без финала

Без какого финала? Быков после каждой серии это говорит, поэтому и обрезали!

_________________
Исправил(а) релиз - напиши в ЛС
На своих одиночных раздачах минимум месяц! Пишите в ЛС, если будет возможность - вернусь на раздачу!
sedoy1974
Стаж: 7 лет 10 мес.
Сообщений: 25
Ratio: 9,493
Раздал: 5,392 TB
100%
russia.gif
Народ, а подскажите пожалуйста сколько серий будет в этом сезоне? Сезон заканчивается на 140? И продолжение будет или нет?
fanDYNAMO ®
Модератор Музыки
RG Music
 
Стаж: 7 лет 4 мес.
Сообщений: 3546
Ratio: 517,196
Раздал: 36,1 TB
Поблагодарили: 84239
100%
Откуда: Черновцы
ukraine.gif
sedoy1974 писал(а): Перейти к сообщению
Народ, а подскажите пожалуйста сколько серий будет в этом сезоне? Сезон заканчивается на 140? И продолжение будет или нет?

Вообще ожидается 180 серий

_________________
Исправил(а) релиз - напиши в ЛС
На своих одиночных раздачах минимум месяц! Пишите в ЛС, если будет возможность - вернусь на раздачу!
VinVlad
Стаж: 9 лет 11 мес.
Сообщений: 15
Ratio: 9,643
100%
russia.gif
fanDYNAMO писал(а): Перейти к сообщению
VinVlad писал(а): Перейти к сообщению
138 серия без финала

Без какого финала? Быков после каждой серии это говорит, поэтому и обрезали!

Сорри, плеер глюкнул и не стал проигрывать последнюю сцену. Всё норм
fanDYNAMO ®
Модератор Музыки
RG Music
 
Стаж: 7 лет 4 мес.
Сообщений: 3546
Ratio: 517,196
Раздал: 36,1 TB
Поблагодарили: 84239
100%
Откуда: Черновцы
ukraine.gif
Внимание! 01.11.2012 - добавлена 140 серия (3-й сезон - 14 серия)! Перекачайте торрент-файл!

_________________
Исправил(а) релиз - напиши в ЛС
На своих одиночных раздачах минимум месяц! Пишите в ЛС, если будет возможность - вернусь на раздачу!
vachovsky
Стаж: 9 лет 7 мес.
Сообщений: 21
Ratio: 10,6
16.43%
не понял, интерны закончились?
dutch-predator
Стаж: 8 лет 2 мес.
Сообщений: 8
Ratio: 1,086
100%
ага :)
svlesin
Модератор Документалистики/TV
RG Releasers
Релизер 25000+ Uploader 300+
 
Стаж: 9 лет 9 мес.
Сообщений: 33774
Ratio: 1737,609
Поблагодарили: 3249283
100%
russia.gif
Теперь всё в одном месте: Интерны (Серии 1-140 из 140) (2010-2012) DVDRip/HQSATRip

_________________
Уважаемые пользователи Клуба! От меня релизов больше не будет. Может быть, буду поддерживать «Обновляемые раздачи». Спасибо всем, кто благодарил меня и говорил/нажимал «Спасибо»!
BBoRiSss
Стаж: 7 лет 1 мес.
Сообщений: 35
Ratio: 9,999
100%
Откуда: Ukraine
ukraine.gif
будем проверять)
Optimus
Стаж: 7 лет 2 мес.
Сообщений: 622
Ratio: 86,758
Поблагодарили: 15368
100%
Откуда: Красноярск
russia.gif
Когда новые будут в курсе кто ?
Показать сообщения:   
Начать новую тему   Ответить на тему    Торрент-трекер NNM-Club -> Отечественные сериалы -> Интерны Часовой пояс: GMT + 3
Страницы:   Пред.  1, 2, 3, 4, 5, 6, 7  След.
Страница 5 из 7