Классический форум-трекер
canvas not supported
Нас вместе: 4 079 479

Летопись полувека. Год 1945 (1967) TVRip


 
 
RSS
Начать новую тему   Ответить на тему    Торрент-трекер NNM-Club -> Документалистика и Телепередачи -> Кинолетопись Страны Советской
Автор Сообщение
nnmclub0112 ®
Стаж: 7 лет 9 мес.
Сообщений: 3894
Ratio: 96,716
Поблагодарили: 249684
100%
Летопись полувека. Год 1945 (1967) TVRip
Название: Летопись полувека. Год 1945

Режиссер / Телекомпания: И. Масленников
Год выпуска: 1967
Жанр: Документальный

Описание:
«Летопись полувека», созданная на советском телевидении (первый в его истории многосерийный документальный фильм), венчала «именинный» проект, невероятное по тем временам грандиозное событие.

Продолжительность: 00:56:19

Видеокодек: DivX 5
Битрейт видео: ~2200 Кбит/сек
Размер кадра: 720x544
Качество видео: TVRip
Аудиокодек: MP3
Битрейт аудио: 128Kbps
Общее
Полное имя : G:\new 092012\!102\Летопись полувека\Летопись полувека. Год 1945\letopis.poluveka.god.1945.avi
Формат : AVI
Формат/Информация : Audio Video Interleave
Размер файла : 942 Мбайт
Продолжительность : 56 м.
Общий поток : 2338 Кбит/сек
Программа кодирования : VirtualDubMod 1.5.10.2 (build 2542/release)
Библиотека кодирования : VirtualDubMod build 2542/release

Видео
Идентификатор : 0
Формат : MPEG-4 Visual
Параметр BVOP формата : 3
Параметр QPel формата : Нет
Параметр GMC формата : Без точки перехода
Параметр матрицы формата : Default (H.263)
Режим смешивания : Сжатый битовый поток
Идентификатор кодека : DX50
Идентификатор кодека/Подсказка : DivX 5
Продолжительность : 56 м.
Битрейт : 2200 Кбит/сек
Ширина : 720 пикселей
Высота : 544 пикселя
Соотношение сторон : 5:4
Соотношение сторон в оригинале : 4:3
Частота кадров : 25,000 кадров/сек
Цветовое пространство : YUV
Субдискретизация насыщенности : 4:2:0
Битовая глубина : 8 бит
Тип развёртки : Прогрессивная
Метод сжатия : С потерями
Бит/(Пиксели*Кадры) : 0.225
Размер потока : 886 Мбайт (94%)
Библиотека кодирования : DivX 6.8.3-6.8.4 (UTC 2008-06-07)

Аудио
Идентификатор : 1
Формат : MPEG Audio
Версия формата : Version 1
Профиль формата : Layer 3
Идентификатор кодека : 55
Идентификатор кодека/Подсказка : MP3
Продолжительность : 56 м.
Вид битрейта : Постоянный
Битрейт : 128 Кбит/сек
Каналы : 1 канал
Частота : 48,0 КГц
Метод сжатия : С потерями
Размер потока : 51,6 Мбайт (5%)
Выравнивание : Соединение по промежуткам
Продолжительность промежутка : 40 мс. (1,00 видеокадр)
Время предзагрузки промежутка : 504 мс.
Библиотека кодирования : LAME3.97
Настройки программы : -m m -V 4 -q 0 -b 128
Скриншоты:




Летопись полувека на NNM-CLUB

Время раздачи: 24/7
[NNM-Club.ru]_letopis.poluveka.god.1945.avi.torrent
 Торрент: Золотая раздача  Зарегистрирован
 
Зарегистрируйтесь и скачайте торрент!
18,7 KB

Примагнититься
 Зарегистрирован:   10 Окт 2012 22:04:52
 Размер:   942 MB  (
 Рейтинг:   4,7 (Голосов: 19)
 Поблагодарили:   60
 Проверка:   Оформление проверено модератором 24 Окт 2012 11:04:03
Как cкачать  ·  Как раздать  ·  Правильно оформить  ·  Поднять ратио!  
Показать сообщения:   
Начать новую тему   Ответить на тему    Торрент-трекер NNM-Club -> Документалистика и Телепередачи -> Кинолетопись Страны Советской Часовой пояс: GMT + 3
Страница 1 из 1