Классический форум-трекер
canvas not supported
Нас вместе: 4 078 116

Летопись полувека. Год 1944 (1967) TVRip


 
 
RSS
Начать новую тему   Ответить на тему    Торрент-трекер NNM-Club -> Документалистика и Телепередачи -> Кинолетопись Страны Советской
Автор Сообщение
nnmclub0112 ®
Стаж: 7 лет 8 мес.
Сообщений: 3888
Ratio: 97,869
Поблагодарили: 249379
100%
Летопись полувека. Год 1944 (1967) TVRip
Название: Летопись полувека. Год 1944

Режиссер / Телекомпания: С.Колобов
Год выпуска: 1967
Жанр: Документальный

Описание:
освобождение Ленинграда,награждение в Кремле,работа в тылу,освобождение Европы,восстановление промышленности,освобождение Севастополя,открытие второго фронта,освобождение Белоруссии,покушение на Гитлера,освобождение Европы

Продолжительность: 00:56:04

Видеокодек: DivX 5
Битрейт видео: ~2200 Кбит/сек
Размер кадра: 720x544
Качество видео: TVRip
Аудиокодек: MP3
Битрейт аудио: 128 Кбит/сек
Общее
Полное имя : G:\new 092012\!102\Летопись полувека\Летопись полувека. Год 1944\letopis.poluveka.god.1944.avi
Формат : AVI
Формат/Информация : Audio Video Interleave
Размер файла : 938 Мбайт
Продолжительность : 56 м.
Общий поток : 2338 Кбит/сек
Программа кодирования : VirtualDubMod 1.5.10.2 (build 2542/release)
Библиотека кодирования : VirtualDubMod build 2542/release

Видео
Идентификатор : 0
Формат : MPEG-4 Visual
Параметр BVOP формата : 3
Параметр QPel формата : Нет
Параметр GMC формата : Без точки перехода
Параметр матрицы формата : Default (H.263)
Режим смешивания : Сжатый битовый поток
Идентификатор кодека : DX50
Идентификатор кодека/Подсказка : DivX 5
Продолжительность : 56 м.
Битрейт : 2200 Кбит/сек
Ширина : 720 пикселей
Высота : 544 пикселя
Соотношение сторон : 5:4
Соотношение сторон в оригинале : 4:3
Частота кадров : 25,000 кадров/сек
Цветовое пространство : YUV
Субдискретизация насыщенности : 4:2:0
Битовая глубина : 8 бит
Тип развёртки : Прогрессивная
Метод сжатия : С потерями
Бит/(Пиксели*Кадры) : 0.225
Размер потока : 882 Мбайт (94%)
Библиотека кодирования : DivX 6.8.3-6.8.4 (UTC 2008-06-07)

Аудио
Идентификатор : 1
Формат : MPEG Audio
Версия формата : Version 1
Профиль формата : Layer 3
Идентификатор кодека : 55
Идентификатор кодека/Подсказка : MP3
Продолжительность : 56 м.
Вид битрейта : Постоянный
Битрейт : 128 Кбит/сек
Каналы : 1 канал
Частота : 48,0 КГц
Метод сжатия : С потерями
Размер потока : 51,3 Мбайт (5%)
Выравнивание : Соединение по промежуткам
Продолжительность промежутка : 40 мс. (1,00 видеокадр)
Время предзагрузки промежутка : 504 мс.
Библиотека кодирования : LAME3.97
Настройки программы : -m m -V 4 -q 0 -b 128
Скриншоты:




Летопись полувека на NNM-CLUB

Время раздачи: 24/7
[NNM-Club.ru]_letopis.poluveka.god.1944.avi.torrent
 Торрент: Золотая раздача  Зарегистрирован
 
Зарегистрируйтесь и скачайте торрент!
18,6 KB

Примагнититься
 Зарегистрирован:   10 Окт 2012 22:16:06
 Размер:   938 MB  (
 Рейтинг:   4,5 (Голосов: 21)
 Поблагодарили:   59
 Проверка:   Оформление проверено модератором 24 Окт 2012 11:04:44
Как cкачать  ·  Как раздать  ·  Правильно оформить  ·  Поднять ратио!  
Показать сообщения:   
Начать новую тему   Ответить на тему    Торрент-трекер NNM-Club -> Документалистика и Телепередачи -> Кинолетопись Страны Советской Часовой пояс: GMT + 3
Страница 1 из 1