Классический форум-трекер
canvas not supported
Нас вместе: 4 081 975

Приключения Тома Сойера и Гекльберри Финна (1981) DVD5 ["Магнат"]


Страницы:  1, 2  След. 
 
RSS
Начать новую тему   Ответить на тему    Торрент-трекер NNM-Club -> Видео -> Отечественные Фильмы для детей
Автор Сообщение
Chernobyl ®
Стаж: 8 лет 2 мес.
Сообщений: 920
Ratio: 134,215
Раздал: 47,18 TB
Поблагодарили: 40351
100%
nnm-club.gif
Приключения Тома Сойера и Гекльберри Финна (3 серии) (1981) DVD5 ["Магнат"]
Жанр: Комедия, Приключения, Семейный

Режиссер: Станислав Говорухин
Сценарий: Станислав Говорухин, Марк Твен
Актеры: Федя Стуков (Том Сойер), Влад Галкин (Гекльберри Финн), Маша Миронова (Беки Тэчер) и др.

Дата мировой премьеры: 27 марта 1983
Дата премьеры в СССР: 27 марта 1983
Дата выхода DVD релиза: 2008, "Магнат"



Описание:
Приключения Тома Сойера и Гекльберри Финна - один из самых любимых фильмов. Его любят не только дети, но и взрослые, что совсем неудивительно, ведь в нем - столько юмора и всевозможных приключений, а герои-сорванцы так похожи сразу на всех мальчишек мира. На фильме Станислава Говорухина, ставшем одной из лучших экранизаций романа, выросли целые поколения. Юные актеры, снявшиеся в этой картине, сделали прекрасную карьеру в кино.

Продолжительность: 01:12:39+01:06:19+01:03:42

Субтитры: нет
Видеокодек: MPEG-2
Битрейт видео: ~3009 kbps
Размер кадра: PAL 4:3 720x576@768x576
Качество видео: DVD5
Аудиокодек: AC3 2.0
Битрейт аудио: ~256 kbps
• Meню озвученное, анимированное, с навигацией по эпизодам

Удален ролик издательства "Магнат". При запуске сразу переходит к главному меню.

Данный диск от Магната является лучшим по качеству!

Издавали приключения так же КАРМЕН-ВИДЕО но картинка там более замыленная и зеленоватая!

Вот от КАРМЕН-ВИДЕО Приключения Тома Сойера и Гекльберри Финна (1981) DVD5


А вот моя раздача от Магната
Ещё одна прекрасная экранизация

Всё-таки Говорухин в Советское время снимал замечательные, качественные экранизации. «Десять негритят», «Место встречи изменить нельзя», «В поисках капитана Гранта» — всё это одни из любимейших фильмов детства и классика отечественного кинематографа. Не исключение и «Приключения Тома Сойера и Гекльберри Финна». Фильм создан в лучших традициях нашего кино и является прекрасной экранизацией замечательной книги. Так что, пересмотрев недавно этот трехсерийный фильм, я остался в полном восторге.

Начать пожалуй нужно с того, что сама книга Марка Твена является одним из самых лучших детских произведений и данный фильм примечателен тем, что очень удачно удалось перенести атмосферу детского бунтарства, беззаботности и захватывающий приключенческий дух книги. Немало этому поспособствовала замечательная (впрочем, как всегда) игра актеров. Васильева, Нигматуллин, Конкин, Павлов, Быков, да все справились просто на отлично. Талгат вообще, сыграл просто демоническую личность, великолепный злодей, хладнокровный, жестокий и беспощадный, неуловимый. Кстати, очень интересно, если будете смотреть обратите внимание на голос индейца Джо.

Особое внимание заслуживают дети, исполняющие главные роли. От взрослых они не отстали и в свою очередь, сыграли также замечательно. Великолепен был молодой Галкин, я постоянно ждал появления его героя, и каждый раз просто упивался его игрой. Такого от Галкина-взрослого я не видел. Наблюдать за Машей Мироновой и Федей Стуковым тоже было в высшей степени интересно. Что примечательно, золотой ребенок и главная звезда детских ролей Стуков, когда вырос, то совершенно затерялся и сейчас о нем не вспоминает никто, а если и вспоминает, то только как мальчика, который сыграл девочку у Михалкова. Незаметные же в то время Галкин и Миронова, когда выросли, то сделали весьма неплохую карьеру и сейчас у всех на слуху. Интересно почему? Слава в раннем детстве сыграла со Стуковым злую шутку или у него не оказалось родителей из кинематографического круга? Вопрос.

Ещё раз повторюсь, атмосфера замечательная. Почему-то всегда, когда смотрел советские фильмы, будь то «Шерлоки Холмсы» или «Ищите женщину», то безоговорочно верил, что вот такие они французы или англичане, или кого там ещё нам показывали. Вот и здесь, все эти домики, чудесные трели банджо, «сэр», «мэм», «масса», у меня и сомнений никогда не возникало, что Америка тогда могла быть другой. Спасибо Говорухину, по-моему, очень атмосферно. Позже он ещё проявит свои лучшие качества в создании далёких миров, показав детям всего Союза полмира в своей эпопее «В поисках капитана Гранта». Вообще в восьмидесятые Говорухин, по-моему, находился в состоянии своего творческого расцвета, в это время он выдал подряд несколько отличнейших экранизаций, попали в это время и «Приключения…». И хоть они не столь любимые и популярные, как другие его нетленки, по качеству эта картина прочим его творениям ничем не уступает.
Title: Приключения Тома Сойера и Гекльберри Финна 1981 DVD5 Магнат
Size: 4.34 Gb ( 4 555 942,00 KBytes ) - DVD-5
Enabled regions: 1, 2, 3, 4, 5, 6, 7, 8

VTS_01 :
Play Length: 00:00:00
Video: PAL 4:3 (720x576) VBR

VTS_02 :
Play Length: 01:12:39
Video: PAL 4:3 (720x576) VBR
Audio:
Russian, AC3, 2/0 (L,R) ch, 256 kbps, Delay 0 mSec

VTS_03 :
Play Length: 01:06:19
Video: PAL 4:3 (720x576) VBR
Audio:
Russian (Dolby AC3, 2 ch)

VTS_04 :
Play Length: 01:03:42
Video: PAL 4:3 (720x576) VBR
Audio:
Russian (Dolby AC3, 2 ch)

* Menus Information *

VIDEO_TS Menu
Video:
PAL 4:3 (720x576) VBR
Audio:
Not specified (LinearPCM, 2 ch)
English Language Unit :
Title Menu

VTS_01 Menu
Video:
PAL 4:3 (720x576) VBR
Audio:
Not specified (Dolby AC3, 2 ch)
English Language Unit :
Root Menu
Chapter (PTT) Menu

VTS_02 Menu
Video:
NTSC 4:3 (720x480) VBR
Auto Pan&Scan, Auto Letterboxed
English Language Unit :
Root Menu
Chapter (PTT) Menu

VTS_03 Menu
Video:
NTSC 4:3 (720x480) VBR
Auto Pan&Scan, Auto Letterboxed
English Language Unit :
Root Menu
Chapter (PTT) Menu

VTS_04 Menu
Video:
NTSC 4:3 (720x480) VBR
Auto Pan&Scan, Auto Letterboxed
English Language Unit :
Root Menu
Chapter (PTT) Menu
Общее
Полное имя : D:\Фильмы\Русская классика\Приключения Тома Сойера и Гекльберри Финна 1981 DVD5 Магнат\VIDEO_TS\VIDEO_TS.BUP
Формат : DVD Video
Профиль формата : Menu
Размер файла : 14,0 Кбайт
Режим общего битрейта : Переменный

Видео
Идентификатор : 224 (0xE0)
Формат : MPEG Video
Версия формата : Version 2
Вид битрейта : Переменный
Ширина : 720 пикселей
Высота : 576 пикселей
Соотношение сторон : 4:3
Частота кадров : 25,000 кадров/сек
Стандарт вещания : PAL
Метод сжатия : С потерями

Аудио
Формат : PCM
Каналы : 2 канала
Частота : 48,0 КГц

Текст
Формат : RLE
Формат/Информация : Run-length encoding
Битовая глубина : 2 бит

Общее
Полное имя : D:\Фильмы\Русская классика\Приключения Тома Сойера и Гекльберри Финна 1981 DVD5 Магнат\VIDEO_TS\VIDEO_TS.IFO
Формат : DVD Video
Профиль формата : Menu
Размер файла : 14,0 Кбайт
Режим общего битрейта : Переменный

Видео
Идентификатор : 224 (0xE0)
Формат : MPEG Video
Версия формата : Version 2
Вид битрейта : Переменный
Ширина : 720 пикселей
Высота : 576 пикселей
Соотношение сторон : 4:3
Частота кадров : 25,000 кадров/сек
Стандарт вещания : PAL
Метод сжатия : С потерями

Аудио
Формат : PCM
Каналы : 2 канала
Частота : 48,0 КГц

Текст
Формат : RLE
Формат/Информация : Run-length encoding
Битовая глубина : 2 бит

Общее
Полное имя : D:\Фильмы\Русская классика\Приключения Тома Сойера и Гекльберри Финна 1981 DVD5 Магнат\VIDEO_TS\VTS_01_0.BUP
Формат : DVD Video
Профиль формата : Program
Размер файла : 28,0 Кбайт
Продолжительность : 600 мс.
Режим общего битрейта : Переменный
Общий поток : 382 Кбит/сек

Видео
Идентификатор : 224 (0xE0)
Формат : MPEG Video
Версия формата : Version 2
Продолжительность : 600 мс.
Вид битрейта : Переменный
Ширина : 720 пикселей
Высота : 576 пикселей
Соотношение сторон : 4:3
Частота кадров : 25,000 кадров/сек
Стандарт вещания : PAL
Метод сжатия : С потерями

Аудио
Формат : AC-3
Формат/Информация : Audio Coding 3
Продолжительность : 600 мс.
Каналы : 2 канала
Частота : 48,0 КГц
Метод сжатия : С потерями

Меню
Продолжительность : 600 мс.
00:00:00.000 : Chapter 1

Общее
Полное имя : D:\Фильмы\Русская классика\Приключения Тома Сойера и Гекльберри Финна 1981 DVD5 Магнат\VIDEO_TS\VTS_01_0.IFO
Формат : DVD Video
Профиль формата : Program
Размер файла : 28,0 Кбайт
Продолжительность : 600 мс.
Режим общего битрейта : Переменный
Общий поток : 382 Кбит/сек

Видео
Идентификатор : 224 (0xE0)
Формат : MPEG Video
Версия формата : Version 2
Продолжительность : 600 мс.
Вид битрейта : Переменный
Ширина : 720 пикселей
Высота : 576 пикселей
Соотношение сторон : 4:3
Частота кадров : 25,000 кадров/сек
Стандарт вещания : PAL
Метод сжатия : С потерями

Аудио
Формат : AC-3
Формат/Информация : Audio Coding 3
Продолжительность : 600 мс.
Каналы : 2 канала
Частота : 48,0 КГц
Метод сжатия : С потерями

Меню
Продолжительность : 600 мс.
00:00:00.000 : Chapter 1

Общее
Полное имя : D:\Фильмы\Русская классика\Приключения Тома Сойера и Гекльберри Финна 1981 DVD5 Магнат\VIDEO_TS\VTS_01_0.VOB
Формат : MPEG-PS
Размер файла : 46,8 Мбайт
Продолжительность : 26 с.
Режим общего битрейта : Переменный
Общий поток : 14,6 Мбит/сек

Видео
Идентификатор : 224 (0xE0)
Формат : MPEG Video
Версия формата : Version 2
Профиль формата : Main@Main
Параметр BVOP формата : Да
Параметр матрицы формата : По умолчанию
Параметр GOP формата : M=3, N=12
Продолжительность : 26 с.
Вид битрейта : Переменный
Битрейт : 14,1 Мбит/сек
Максимальный битрейт : 9500 Кбит/сек
Ширина : 720 пикселей
Высота : 576 пикселей
Соотношение сторон : 4:3
Частота кадров : 25,000 кадров/сек
Стандарт вещания : PAL
Цветовое пространство : YUV
Субдискретизация насыщенности : 4:2:0
Битовая глубина : 8 бит
Тип развёртки : Чересстрочная
Порядок развёртки : Нижнее поле первое
Метод сжатия : С потерями
Бит/(Пиксели*Кадры) : 1.362
Размер потока : 45,1 Мбайт (96%)

Аудио
Идентификатор : 189 (0xBD)-128 (0x80)
Формат : AC-3
Формат/Информация : Audio Coding 3
Расширение режима : CM (complete main)
Параметр Endianness формата : Big
Режим смешивания : DVD-Video
Продолжительность : 26 с.
Вид битрейта : Постоянный
Битрейт : 192 Кбит/сек
Каналы : 2 канала
Расположение каналов : Front: L R
Частота : 48,0 КГц
Битовая глубина : 16 бит
Метод сжатия : С потерями
Задержка видео : -80 мс.
Размер потока : 630 Кбайт (1%)

Текст
Идентификатор : 189 (0xBD)-32 (0x20)
Формат : RLE
Формат/Информация : Run-length encoding
Режим смешивания : DVD-Video
Задержка видео : -80 мс.

Меню

Общее
Полное имя : D:\Фильмы\Русская классика\Приключения Тома Сойера и Гекльберри Финна 1981 DVD5 Магнат\VIDEO_TS\VTS_01_1.VOB
Формат : MPEG-PS
Размер файла : 10,0 Кбайт
Продолжительность : 40 мс.
Общий поток : 2048 Кбит/сек

Видео
Идентификатор : 224 (0xE0)
Формат : MPEG Video
Версия формата : Version 2
Профиль формата : Main@Main
Параметр BVOP формата : Нет
Параметр матрицы формата : Выборочная
Продолжительность : 40 мс.
Максимальный битрейт : 8000 Кбит/сек
Ширина : 720 пикселей
Высота : 576 пикселей
Соотношение сторон : 4:3
Частота кадров : 25,000 кадров/сек
Стандарт вещания : PAL
Цветовое пространство : YUV
Субдискретизация насыщенности : 4:2:0
Битовая глубина : 8 бит
Тип развёртки : Прогрессивная
Порядок развёртки : Верхнее поле первое
Метод сжатия : С потерями

Меню

Общее
Полное имя : D:\Фильмы\Русская классика\Приключения Тома Сойера и Гекльберри Финна 1981 DVD5 Магнат\VIDEO_TS\VTS_02_0.BUP
Формат : DVD Video
Профиль формата : Program
Размер файла : 54,0 Кбайт
Продолжительность : 1 ч. 12 м.
Режим общего битрейта : Переменный
Общий поток : 101 бит/сек

Видео
Идентификатор : 224 (0xE0)
Формат : MPEG Video
Версия формата : Version 2
Продолжительность : 1 ч. 12 м.
Вид битрейта : Переменный
Ширина : 720 пикселей
Высота : 576 пикселей
Соотношение сторон : 4:3
Частота кадров : 25,000 кадров/сек
Стандарт вещания : PAL
Метод сжатия : С потерями

Аудио
Идентификатор : 128 (0x80)
Формат : AC-3
Формат/Информация : Audio Coding 3
Продолжительность : 1 ч. 12 м.
Каналы : 2 канала
Частота : 48,0 КГц
Метод сжатия : С потерями
Язык : Russian

Меню
Продолжительность : 1 ч. 12 м.
00:00:00.000 : Chapter 1
00:12:50.400 : Chapter 2
00:28:31.680 : Chapter 3
00:39:10.080 : Chapter 4
00:46:48.960 : Chapter 5
01:01:35.040 : Chapter 6
List (Audio) : 0

Общее
Полное имя : D:\Фильмы\Русская классика\Приключения Тома Сойера и Гекльберри Финна 1981 DVD5 Магнат\VIDEO_TS\VTS_02_0.IFO
Формат : DVD Video
Профиль формата : Program
Размер файла : 54,0 Кбайт
Продолжительность : 1 ч. 12 м.
Режим общего битрейта : Переменный
Общий поток : 101 бит/сек

Видео
Идентификатор : 224 (0xE0)
Формат : MPEG Video
Версия формата : Version 2
Продолжительность : 1 ч. 12 м.
Вид битрейта : Переменный
Ширина : 720 пикселей
Высота : 576 пикселей
Соотношение сторон : 4:3
Частота кадров : 25,000 кадров/сек
Стандарт вещания : PAL
Метод сжатия : С потерями

Аудио
Идентификатор : 128 (0x80)
Формат : AC-3
Формат/Информация : Audio Coding 3
Продолжительность : 1 ч. 12 м.
Каналы : 2 канала
Частота : 48,0 КГц
Метод сжатия : С потерями
Язык : Russian

Меню
Продолжительность : 1 ч. 12 м.
00:00:00.000 : Chapter 1
00:12:50.400 : Chapter 2
00:28:31.680 : Chapter 3
00:39:10.080 : Chapter 4
00:46:48.960 : Chapter 5
01:01:35.040 : Chapter 6
List (Audio) : 0

Общее
Полное имя : D:\Фильмы\Русская классика\Приключения Тома Сойера и Гекльберри Финна 1981 DVD5 Магнат\VIDEO_TS\VTS_02_1.VOB
Формат : MPEG-PS
Размер файла : 1024 Мбайт
Продолжительность : 44 м.
Режим общего битрейта : Переменный
Общий поток : 3202 Кбит/сек

Видео
Идентификатор : 224 (0xE0)
Формат : MPEG Video
Версия формата : Version 2
Профиль формата : Main@Main
Параметр BVOP формата : Да
Параметр матрицы формата : Выборочная
Продолжительность : 44 м.
Вид битрейта : Переменный
Битрейт : 2882 Кбит/сек
Максимальный битрейт : 9500 Кбит/сек
Ширина : 720 пикселей
Высота : 576 пикселей
Соотношение сторон : 4:3
Частота кадров : 25,000 кадров/сек
Стандарт вещания : PAL
Цветовое пространство : YUV
Субдискретизация насыщенности : 4:2:0
Битовая глубина : 8 бит
Тип развёртки : Чересстрочная
Порядок развёртки : Верхнее поле первое
Метод сжатия : С потерями
Бит/(Пиксели*Кадры) : 0.278
Размер потока : 922 Мбайт (90%)

Аудио
Идентификатор : 189 (0xBD)-128 (0x80)
Формат : AC-3
Формат/Информация : Audio Coding 3
Расширение режима : CM (complete main)
Параметр Endianness формата : Big
Режим смешивания : DVD-Video
Продолжительность : 44 м.
Вид битрейта : Постоянный
Битрейт : 256 Кбит/сек
Каналы : 2 канала
Расположение каналов : Front: L R
Частота : 48,0 КГц
Битовая глубина : 16 бит
Метод сжатия : С потерями
Задержка видео : -80 мс.
Размер потока : 81,9 Мбайт (8%)

Меню

Общее
Полное имя : D:\Фильмы\Русская классика\Приключения Тома Сойера и Гекльберри Финна 1981 DVD5 Магнат\VIDEO_TS\VTS_02_2.VOB
Формат : MPEG-PS
Размер файла : 540 Мбайт
Продолжительность : 27 м.
Режим общего битрейта : Переменный
Общий поток : 2700 Кбит/сек

Видео
Идентификатор : 224 (0xE0)
Формат : MPEG Video
Версия формата : Version 2
Профиль формата : Main@Main
Параметр BVOP формата : Да
Параметр матрицы формата : Выборочная
Параметр GOP формата : M=3, N=12
Продолжительность : 27 м.
Вид битрейта : Переменный
Битрейт : 2390 Кбит/сек
Максимальный битрейт : 9500 Кбит/сек
Ширина : 720 пикселей
Высота : 576 пикселей
Соотношение сторон : 4:3
Частота кадров : 25,000 кадров/сек
Стандарт вещания : PAL
Цветовое пространство : YUV
Субдискретизация насыщенности : 4:2:0
Битовая глубина : 8 бит
Тип развёртки : Чересстрочная
Порядок развёртки : Верхнее поле первое
Метод сжатия : С потерями
Бит/(Пиксели*Кадры) : 0.231
Размер потока : 478 Мбайт (88%)

Аудио
Идентификатор : 189 (0xBD)-128 (0x80)
Формат : AC-3
Формат/Информация : Audio Coding 3
Расширение режима : CM (complete main)
Параметр Endianness формата : Big
Режим смешивания : DVD-Video
Продолжительность : 27 м.
Вид битрейта : Постоянный
Битрейт : 256 Кбит/сек
Каналы : 2 канала
Расположение каналов : Front: L R
Частота : 48,0 КГц
Битовая глубина : 16 бит
Метод сжатия : С потерями
Задержка видео : -784 мс.
Размер потока : 51,2 Мбайт (9%)

Меню

Общее
Полное имя : D:\Фильмы\Русская классика\Приключения Тома Сойера и Гекльберри Финна 1981 DVD5 Магнат\VIDEO_TS\VTS_03_0.BUP
Формат : DVD Video
Профиль формата : Program
Размер файла : 54,0 Кбайт
Продолжительность : 1 ч. 6 м.
Режим общего битрейта : Переменный
Общий поток : 111 бит/сек

Видео
Идентификатор : 224 (0xE0)
Формат : MPEG Video
Версия формата : Version 2
Продолжительность : 1 ч. 6 м.
Вид битрейта : Переменный
Ширина : 720 пикселей
Высота : 576 пикселей
Соотношение сторон : 4:3
Частота кадров : 25,000 кадров/сек
Стандарт вещания : PAL
Метод сжатия : С потерями

Аудио
Идентификатор : 128 (0x80)
Формат : AC-3
Формат/Информация : Audio Coding 3
Продолжительность : 1 ч. 6 м.
Каналы : 2 канала
Частота : 48,0 КГц
Метод сжатия : С потерями
Язык : Russian

Меню
Продолжительность : 1 ч. 6 м.
00:00:00.000 : Chapter 1
00:10:50.880 : Chapter 2
00:19:31.200 : Chapter 3
00:31:50.400 : Chapter 4
00:45:14.880 : Chapter 5
00:54:06.240 : Chapter 6
List (Audio) : 0

Общее
Полное имя : D:\Фильмы\Русская классика\Приключения Тома Сойера и Гекльберри Финна 1981 DVD5 Магнат\VIDEO_TS\VTS_03_0.IFO
Формат : DVD Video
Профиль формата : Program
Размер файла : 54,0 Кбайт
Продолжительность : 1 ч. 6 м.
Режим общего битрейта : Переменный
Общий поток : 111 бит/сек

Видео
Идентификатор : 224 (0xE0)
Формат : MPEG Video
Версия формата : Version 2
Продолжительность : 1 ч. 6 м.
Вид битрейта : Переменный
Ширина : 720 пикселей
Высота : 576 пикселей
Соотношение сторон : 4:3
Частота кадров : 25,000 кадров/сек
Стандарт вещания : PAL
Метод сжатия : С потерями

Аудио
Идентификатор : 128 (0x80)
Формат : AC-3
Формат/Информация : Audio Coding 3
Продолжительность : 1 ч. 6 м.
Каналы : 2 канала
Частота : 48,0 КГц
Метод сжатия : С потерями
Язык : Russian

Меню
Продолжительность : 1 ч. 6 м.
00:00:00.000 : Chapter 1
00:10:50.880 : Chapter 2
00:19:31.200 : Chapter 3
00:31:50.400 : Chapter 4
00:45:14.880 : Chapter 5
00:54:06.240 : Chapter 6
List (Audio) : 0

Общее
Полное имя : D:\Фильмы\Русская классика\Приключения Тома Сойера и Гекльберри Финна 1981 DVD5 Магнат\VIDEO_TS\VTS_03_1.VOB
Формат : MPEG-PS
Размер файла : 1024 Мбайт
Продолжительность : 46 м.
Режим общего битрейта : Переменный
Общий поток : 3112 Кбит/сек

Видео
Идентификатор : 224 (0xE0)
Формат : MPEG Video
Версия формата : Version 2
Профиль формата : Main@Main
Параметр BVOP формата : Да
Параметр матрицы формата : Выборочная
Продолжительность : 46 м.
Вид битрейта : Переменный
Битрейт : 2794 Кбит/сек
Максимальный битрейт : 9500 Кбит/сек
Ширина : 720 пикселей
Высота : 576 пикселей
Соотношение сторон : 4:3
Частота кадров : 25,000 кадров/сек
Стандарт вещания : PAL
Цветовое пространство : YUV
Субдискретизация насыщенности : 4:2:0
Битовая глубина : 8 бит
Тип развёртки : Чересстрочная
Порядок развёртки : Верхнее поле первое
Метод сжатия : С потерями
Бит/(Пиксели*Кадры) : 0.270
Размер потока : 919 Мбайт (90%)

Аудио
Идентификатор : 189 (0xBD)-128 (0x80)
Формат : AC-3
Формат/Информация : Audio Coding 3
Расширение режима : CM (complete main)
Параметр Endianness формата : Big
Режим смешивания : DVD-Video
Продолжительность : 45 м.
Вид битрейта : Постоянный
Битрейт : 256 Кбит/сек
Каналы : 2 канала
Расположение каналов : Front: L R
Частота : 48,0 КГц
Битовая глубина : 16 бит
Метод сжатия : С потерями
Задержка видео : -128 мс.
Размер потока : 84,2 Мбайт (8%)

Меню

Общее
Полное имя : D:\Фильмы\Русская классика\Приключения Тома Сойера и Гекльберри Финна 1981 DVD5 Магнат\VIDEO_TS\VTS_03_2.VOB
Формат : MPEG-PS
Размер файла : 429 Мбайт
Продолжительность : 20 м.
Режим общего битрейта : Переменный
Общий поток : 2947 Кбит/сек

Видео
Идентификатор : 224 (0xE0)
Формат : MPEG Video
Версия формата : Version 2
Профиль формата : Main@Main
Параметр BVOP формата : Да
Параметр матрицы формата : Выборочная
Параметр GOP формата : M=3, N=12
Продолжительность : 20 м.
Вид битрейта : Переменный
Битрейт : 2633 Кбит/сек
Максимальный битрейт : 9500 Кбит/сек
Ширина : 720 пикселей
Высота : 576 пикселей
Соотношение сторон : 4:3
Частота кадров : 25,000 кадров/сек
Стандарт вещания : PAL
Цветовое пространство : YUV
Субдискретизация насыщенности : 4:2:0
Битовая глубина : 8 бит
Тип развёртки : Чересстрочная
Порядок развёртки : Верхнее поле первое
Метод сжатия : С потерями
Бит/(Пиксели*Кадры) : 0.254
Размер потока : 383 Мбайт (89%)

Аудио
Идентификатор : 189 (0xBD)-128 (0x80)
Формат : AC-3
Формат/Информация : Audio Coding 3
Расширение режима : CM (complete main)
Параметр Endianness формата : Big
Режим смешивания : DVD-Video
Продолжительность : 20 м.
Вид битрейта : Постоянный
Битрейт : 256 Кбит/сек
Каналы : 2 канала
Расположение каналов : Front: L R
Частота : 48,0 КГц
Битовая глубина : 16 бит
Метод сжатия : С потерями
Задержка видео : -784 мс.
Размер потока : 37,2 Мбайт (9%)

Меню

Общее
Полное имя : D:\Фильмы\Русская классика\Приключения Тома Сойера и Гекльберри Финна 1981 DVD5 Магнат\VIDEO_TS\VTS_04_0.BUP
Формат : DVD Video
Профиль формата : Program
Размер файла : 52,0 Кбайт
Продолжительность : 1 ч. 3 м.
Режим общего битрейта : Переменный
Общий поток : 111 бит/сек

Видео
Идентификатор : 224 (0xE0)
Формат : MPEG Video
Версия формата : Version 2
Продолжительность : 1 ч. 3 м.
Вид битрейта : Переменный
Ширина : 720 пикселей
Высота : 576 пикселей
Соотношение сторон : 4:3
Частота кадров : 25,000 кадров/сек
Стандарт вещания : PAL
Метод сжатия : С потерями

Аудио
Идентификатор : 128 (0x80)
Формат : AC-3
Формат/Информация : Audio Coding 3
Продолжительность : 1 ч. 3 м.
Каналы : 2 канала
Частота : 48,0 КГц
Метод сжатия : С потерями
Язык : Russian

Меню
Продолжительность : 1 ч. 3 м.
00:00:00.000 : Chapter 1
00:09:02.400 : Chapter 2
00:19:00.000 : Chapter 3
00:29:29.280 : Chapter 4
00:44:45.120 : Chapter 5
00:55:42.240 : Chapter 6
List (Audio) : 0

Общее
Полное имя : D:\Фильмы\Русская классика\Приключения Тома Сойера и Гекльберри Финна 1981 DVD5 Магнат\VIDEO_TS\VTS_04_0.IFO
Формат : DVD Video
Профиль формата : Program
Размер файла : 52,0 Кбайт
Продолжительность : 1 ч. 3 м.
Режим общего битрейта : Переменный
Общий поток : 111 бит/сек

Видео
Идентификатор : 224 (0xE0)
Формат : MPEG Video
Версия формата : Version 2
Продолжительность : 1 ч. 3 м.
Вид битрейта : Переменный
Ширина : 720 пикселей
Высота : 576 пикселей
Соотношение сторон : 4:3
Частота кадров : 25,000 кадров/сек
Стандарт вещания : PAL
Метод сжатия : С потерями

Аудио
Идентификатор : 128 (0x80)
Формат : AC-3
Формат/Информация : Audio Coding 3
Продолжительность : 1 ч. 3 м.
Каналы : 2 канала
Частота : 48,0 КГц
Метод сжатия : С потерями
Язык : Russian

Меню
Продолжительность : 1 ч. 3 м.
00:00:00.000 : Chapter 1
00:09:02.400 : Chapter 2
00:19:00.000 : Chapter 3
00:29:29.280 : Chapter 4
00:44:45.120 : Chapter 5
00:55:42.240 : Chapter 6
List (Audio) : 0

Общее
Полное имя : D:\Фильмы\Русская классика\Приключения Тома Сойера и Гекльберри Финна 1981 DVD5 Магнат\VIDEO_TS\VTS_04_1.VOB
Формат : MPEG-PS
Размер файла : 1024 Мбайт
Продолжительность : 47 м.
Режим общего битрейта : Переменный
Общий поток : 2997 Кбит/сек

Видео
Идентификатор : 224 (0xE0)
Формат : MPEG Video
Версия формата : Version 2
Профиль формата : Main@Main
Параметр BVOP формата : Да
Параметр матрицы формата : Выборочная
Продолжительность : 47 м.
Вид битрейта : Переменный
Битрейт : 2681 Кбит/сек
Максимальный битрейт : 9500 Кбит/сек
Ширина : 720 пикселей
Высота : 576 пикселей
Соотношение сторон : 4:3
Частота кадров : 25,000 кадров/сек
Стандарт вещания : PAL
Цветовое пространство : YUV
Субдискретизация насыщенности : 4:2:0
Битовая глубина : 8 бит
Тип развёртки : Чересстрочная
Порядок развёртки : Верхнее поле первое
Метод сжатия : С потерями
Бит/(Пиксели*Кадры) : 0.259
Размер потока : 916 Мбайт (89%)

Аудио
Идентификатор : 189 (0xBD)-128 (0x80)
Формат : AC-3
Формат/Информация : Audio Coding 3
Расширение режима : CM (complete main)
Параметр Endianness формата : Big
Режим смешивания : DVD-Video
Продолжительность : 47 м.
Вид битрейта : Постоянный
Битрейт : 256 Кбит/сек
Каналы : 2 канала
Расположение каналов : Front: L R
Частота : 48,0 КГц
Битовая глубина : 16 бит
Метод сжатия : С потерями
Задержка видео : -96 мс.
Размер потока : 87,5 Мбайт (9%)

Меню

Общее
Полное имя : D:\Фильмы\Русская классика\Приключения Тома Сойера и Гекльберри Финна 1981 DVD5 Магнат\VIDEO_TS\VTS_04_2.VOB
Формат : MPEG-PS
Размер файла : 362 Мбайт
Продолжительность : 15 м.
Режим общего битрейта : Переменный
Общий поток : 3174 Кбит/сек

Видео
Идентификатор : 224 (0xE0)
Формат : MPEG Video
Версия формата : Version 2
Профиль формата : Main@Main
Параметр BVOP формата : Да
Параметр матрицы формата : Выборочная
Параметр GOP формата : M=3, N=12
Продолжительность : 15 м.
Вид битрейта : Переменный
Битрейт : 2855 Кбит/сек
Максимальный битрейт : 9500 Кбит/сек
Ширина : 720 пикселей
Высота : 576 пикселей
Соотношение сторон : 4:3
Частота кадров : 25,000 кадров/сек
Стандарт вещания : PAL
Цветовое пространство : YUV
Субдискретизация насыщенности : 4:2:0
Битовая глубина : 8 бит
Тип развёртки : Чересстрочная
Порядок развёртки : Верхнее поле первое
Метод сжатия : С потерями
Бит/(Пиксели*Кадры) : 0.275
Размер потока : 325 Мбайт (90%)

Аудио
Идентификатор : 189 (0xBD)-128 (0x80)
Формат : AC-3
Формат/Информация : Audio Coding 3
Расширение режима : CM (complete main)
Параметр Endianness формата : Big
Режим смешивания : DVD-Video
Продолжительность : 15 м.
Вид битрейта : Постоянный
Битрейт : 256 Кбит/сек
Каналы : 2 канала
Расположение каналов : Front: L R
Частота : 48,0 КГц
Битовая глубина : 16 бит
Метод сжатия : С потерями
Задержка видео : -560 мс.
Размер потока : 29,2 Мбайт (8%)
Скриншоты:


Время раздачи: С 00:00 до 8:00 (до первых сидов) Зарание извините за низкую скорость раздачи!
[NNM-Club.me]_[NNM-Club.ru]_Priklyucheniya Toma Soyera i Gekl'berri Finna (3 serii) (1981) DVD5 [Magnat].torrent
 Торрент: Платиновая раздача  Зарегистрирован
 
Скачать


Примагнититься
 Зарегистрирован:   16 Май 2019 08:14:12
 Размер:   4,36 GB  (
 Рейтинг:   4,8 (Голосов: 100)
 Поблагодарили:   420
 Проверка:   Оформление проверено модератором 16 Май 2019 08:15:03
Если можете положите сколько не жалко. Деньги пойду на оплату сидбокса. Яндекс деньги: 410014704467395
Как cкачать  ·  Как раздать  ·  Правильно оформить  ·  Поднять ратио!  
Chernobyl ®
Стаж: 8 лет 2 мес.
Сообщений: 920
Ratio: 134,215
Раздал: 47,18 TB
Поблагодарили: 40351
100%
nnm-club.gif
Все раздачи "Приключения Тома Сойера и Гекльберри Финна (1981)" на NoNaMe-Club

Продолжение приключении Совсем пропащий (1972) DVDRip

Все книги Марк Твен | Все Приключения Тома Сойера и Гекльберри Финна [2012] [FB2]
dimitrii36
Стаж: 7 лет 8 мес.
Сообщений: 260
Ratio: 42,764
100%
Откуда: от верблюда
witch.png
Эх,старое-доброе кино,супер! :респект: :клево:

_________________
Благодарю за труды. Когда мы едины,мы непобедимы!
Chernobyl ®
Стаж: 8 лет 2 мес.
Сообщений: 920
Ratio: 134,215
Раздал: 47,18 TB
Поблагодарили: 40351
100%
nnm-club.gif
Завтра буду на раздаче! с 00:00 до 8:00!
джон макджон
Стаж: 9 лет 4 мес.
Сообщений: 78
Ratio: 49,005
100%
С удовольствием посмотрим, если, конечно, скачаем, раздача стоит. А автору за труд +100000. Спасибо!
boeing787
 
Стаж: 9 лет
Сообщений: 262
Ratio: 28,898
96.53%
Откуда: от верблюда
eq_guinea.gif
раздайте же наконец плиз )))
rantamay
Стаж: 9 лет
Сообщений: 89
Ratio: 27,014
100%
Откуда: Россия
russia.gif
Волнуюсь, не случилось ли чего...

_________________
Прошёл "Мафию" три раза, один раз в уме.
Chernobyl ®
Стаж: 8 лет 2 мес.
Сообщений: 920
Ratio: 134,215
Раздал: 47,18 TB
Поблагодарили: 40351
100%
nnm-club.gif
Прошу меня просить , раздавать смогу где-то через неделю по техническим причинам!
AL14
Стаж: 9 лет 4 мес.
Сообщений: 189
Ratio: 129,135
100%
nnm-club.gif
Кто-нибудь встаньте на раздачу, пожалуйста. Жду уже 10 дней и толку нет.
BarShadow
Куратор КПК
и Мобилок
Стаж: 8 лет 8 мес.
Сообщений: 17267
Ratio: 46,988
Поблагодарили: 20827
100%
Откуда: Пятая планета от Солнца
wild_hogs.gif
Вечная память Владу Галкину.
artpodonkov
Стаж: 8 лет
Сообщений: 19
Ratio: 50,577
100%
Откуда: Мурманск
Chernobyl
А есть ли смысл ждать всё таки эту раздачу? Появится ли у тебя возможность раздавать в ближайшее время?

_________________
Завтра будет! Лучше...
Chernobyl ®
Стаж: 8 лет 2 мес.
Сообщений: 920
Ratio: 134,215
Раздал: 47,18 TB
Поблагодарили: 40351
100%
nnm-club.gif
К сожаление у меня проблемы с раздачей но более качественная версия например
Приключения Тома Сойера и Гекльберри Финна (1981) SATRip
almikl
Куратор Детского.
Модератор Видео.
RG Всё лучшее - детям!
Uploader 500+
 
Стаж: 12 лет 5 мес.
Сообщений: 4775
Ratio: 345,654
Поблагодарили: 108247
100%
Откуда: Дааалекое Подмосковье
russia.gif
Торрент файл обновлен и перезалит! Просьба перезакачать!
Встал на раздачу :пока:
muh@
Стаж: 9 лет 1 мес.
Сообщений: 54
Ratio: 6,556
Раздал: 384 GB
100%
russia.gif
Качество от Магната конечно немного отличается от качества Кармена, но все равно картинка отвратительная ! Это вам не Крупный План ! Жаль, что Крупный План не занимался этим фильмом, а такой "монтаж" я и сам мог сделать. Как-бы то ни было, а раздающему все-равно спасибо !
ADVOKAT69
Стаж: 5 лет 11 мес.
Сообщений: 368
Ratio: 5,945
Поблагодарили: 838
41.2%
Откуда: СССР
ussr.gif
Друзья мои будьте любезны раздайте пожалуйста этот шедевр

Добавлено спустя 1 час 39 минут 32 секунды:

вот спасибо за отклик на просьбу
Показать сообщения:   
Начать новую тему   Ответить на тему    Торрент-трекер NNM-Club -> Видео -> Отечественные Фильмы для детей Часовой пояс: GMT + 3
Страницы:  1, 2  След.
Страница 1 из 2