Классический форум-трекер
canvas not supported
Нас вместе: 4 093 916

Дневники вампира / The Vаmрirе Diаriеs (Сезон 4 полный (23)) (2012) WEB-DLRip 400р DD5.1 (Кубик в Кубе)


Страницы:  1, 2, 3  След. 
 
RSS
Начать новую тему   Ответить на тему    Торрент-трекер NNM-Club -> Зарубежные сериалы -> Дневники вампира / Vampire Diaries ; Настоящая кровь / True Blood; Древние / Originals
Автор Сообщение
TollayaEkb ®
Стаж: 9 лет 10 мес.
Сообщений: 5745
Ratio: 2181,473
Раздал: 116,5 TB
Поблагодарили: 218663
100%
Откуда: Екб
russia.gif
Дневники вампира / The Vаmрirе Diаriеs
(Сезон 4, серии 01-23 из 23) (2012) WEB-DLRip 400р (Кубик в Кубе)


Русское название: Дневники вампира
Оригинальное название: The Vаmрirе Diаriе
Год выхода: 2012
Производство: США, CW
Жанр: Ужасы, фэнтези, драма
Сезон: 4
Серии: 01-23 из 23 серий
Продолжительность: ~ 42:00 мин серия



Перевод: Профессиональный двухголосый закадровый - Кубик в Кубе

Режиссер: Маркос Сига
В ролях: Нина Добрев, Пол Уэсли, Йен Сомерхалдер, Катерина Грэхэм, Стивен Р. МакКуин, Бенджамин Эйрс, Стив Белфорд, Сара Каннинг, Кайла Юэлл, Марси Т. Хаус и др.


Описание:
Стефан и Елена тут же чувствуют взаимную симпатию, но Елена даже не подозревает, что Стефан — вампир, которому уже сотни лет, и который старается мирно жить среди людей, несмотря на то, что его брат, Дэймон — воплощение вампирской жестокости и кровожадности. Теперь два брата-вампира — один добрый, другой злой — ведут борьбу за души Елены, ее друзей и других жителей городка Мистик Фоллз.
4 сезон. Современные убийства в Мистик Фоллс напоминают Дэймону о схожих преступлениях, происходивших сто лет назад. Во флешбэках из 1912го года Дэймон вспоминает прекрасную вампиршу Сэйдж, которая показала ему, что жить можно совсем по-другому. Шериф Форбс предупреждает Дэймона, чтобы он не ввязывался в расследование, но он уверен, что она подозревает не того. Елена с Мэттом устраивают взлом, пытаясь найти улики против доктора Фелл, которую считают убийцей. По известным только ей самой причинам Ребекка начинает интересоваться расположением одной из старейших достопримечательностей города. Елена наконец-то начинает понимать, что ее жизнь пошла в другом направлении, а Дэймон совершает эмоциональное признание Стефану.


Качество: WEB-DLRip
Видео: 720x400 (1.80:1), 23.976 fps, XviD build 65 ~1998 kbps avg, 0.29 bit/pixel
Аудио: 48 kHz, AC3 Dolby Digital, 3/2 (L,C,R,l,r) + LFE ch, ~384.00kbps (RU, EN)
Субтитры: русские, английские - внешние
| Сэмпл видео | Все раздачи|
General
Complete name : \\\The.Vampire.Diaries.s04e01.rus.eng.avi
Format : AVI
Format/Info : Audio Video Interleave
File size : 852 MiB
Duration : 42mn 30s
Overall bit rate : 2 802 Kbps
Writing application : VirtualDubMod 1.5.10.2 (build 2540/release)
Writing library : VirtualDubMod build 2540/release
Video
ID : 0
Format : MPEG-4 Visual
Format profile : Advanced Simple@L5
Format settings, BVOP : 1
Format settings, QPel : No
Format settings, GMC : No warppoints
Format settings, Matrix : Default (MPEG)
Codec ID : XVID
Codec ID/Hint : XviD
Duration : 42mn 30s
Bit rate : 2 020 Kbps
Width : 720 pixels
Height : 400 pixels
Display aspect ratio : 16:9
Frame rate : 23.976 fps
Color space : YUV
Chroma subsampling : 4:2:0
Bit depth : 8 bits
Scan type : Progressive
Compression mode : Lossy
Bits/(Pixel*Frame) : 0.292
Stream size : 614 MiB (72%)
Writing library : XviD 65
Audio #1
ID : 1
Format : AC-3
Format/Info : Audio Coding 3
Mode extension : CM (complete main)
Codec ID : 2000
Duration : 42mn 30s
Bit rate mode : Constant
Bit rate : 384 Kbps
Channel(s) : 6 channels
Channel positions : Front: L C R, Side: L R, LFE
Sampling rate : 48.0 KHz
Bit depth : 16 bits
Compression mode : Lossy
Stream size : 117 MiB (14%)
Alignment : Split accross interleaves
Interleave, duration : 42 ms (1.00 video frame)
Interleave, preload duration : 500 ms
Audio #2
ID : 2
Format : AC-3
Format/Info : Audio Coding 3
Mode extension : CM (complete main)
Codec ID : 2000
Duration : 42mn 30s
Bit rate mode : Constant
Bit rate : 384 Kbps
Channel(s) : 6 channels
Channel positions : Front: L C R, Side: L R, LFE
Sampling rate : 48.0 KHz
Bit depth : 16 bits
Compression mode : Lossy
Stream size : 117 MiB (14%)
Alignment : Split accross interleaves
Interleave, duration : 42 ms (1.00 video frame)
Interleave, preload duration : 500 ms

<<<Скриншоты>>>

Время раздачи: 24/7 - круглосуточно (до первых сидов - потом по возможности)
[NNM-Club.ru]_The Vampire Diaries Season 4 400r KvK.torrent
 Торрент: Платиновая раздача  Зарегистрирован
 
Скачать


 Зарегистрирован:   18 Май 2013 22:26:08
 Размер:   19 GB  (
 Рейтинг:   4,6 (Голосов: 169)
 Поблагодарили:   498
 Проверка:   Оформление проверено модератором 20 Май 2013 20:23:37
Как cкачать  ·  Как раздать  ·  Правильно оформить  ·  Поднять ратио!  
TollayaEkb ®
Стаж: 9 лет 10 мес.
Сообщений: 5745
Ratio: 2181,473
Раздал: 116,5 TB
Поблагодарили: 218663
100%
Откуда: Екб
russia.gif
\\\
TollayaEkb ®
Стаж: 9 лет 10 мес.
Сообщений: 5745
Ratio: 2181,473
Раздал: 116,5 TB
Поблагодарили: 218663
100%
Откуда: Екб
russia.gif
Добавлена 2 серия. Перекачайте торрент
corso-castle
Стаж: 8 лет 11 мес.
Сообщений: 30
Ratio: 16,733
100%
ukraine.gif
спасибо большое ))

_________________
Cane corso is the best breed of people
Better than cane corso is only two cane corso
TollayaEkb ®
Стаж: 9 лет 10 мес.
Сообщений: 5745
Ratio: 2181,473
Раздал: 116,5 TB
Поблагодарили: 218663
100%
Откуда: Екб
russia.gif
Добавлена 3 серия. Перекачайте торрент
corso-castle
Стаж: 8 лет 11 мес.
Сообщений: 30
Ratio: 16,733
100%
ukraine.gif
ура! спасибо

_________________
Cane corso is the best breed of people
Better than cane corso is only two cane corso
TollayaEkb ®
Стаж: 9 лет 10 мес.
Сообщений: 5745
Ratio: 2181,473
Раздал: 116,5 TB
Поблагодарили: 218663
100%
Откуда: Екб
russia.gif
Добавлена 4 серия. Перекачайте торрент
corso-castle
Стаж: 8 лет 11 мес.
Сообщений: 30
Ratio: 16,733
100%
ukraine.gif
а что к 4 серии субтитры не прилагаются?

_________________
Cane corso is the best breed of people
Better than cane corso is only two cane corso
TollayaEkb ®
Стаж: 9 лет 10 мес.
Сообщений: 5745
Ratio: 2181,473
Раздал: 116,5 TB
Поблагодарили: 218663
100%
Откуда: Екб
russia.gif
Добавлена 5 серия. Перекачайте торрент
vsta
Стаж: 7 лет 4 мес.
Сообщений: 9
Ratio: 12,233
100%
На трекере Мекса уже выложили 6 серию!
kostrik
Стаж: 9 лет 11 мес.
Сообщений: 42
Ratio: 4,19
100%
Откуда: ufa
russia.gif
vsta писал(а): Перейти к сообщению
На трекере Мекса уже выложили 6 серию!
ага Дневники вампира / The Vаmрirе Diаriеs (Сезон 4, серии 01-06 (23)) (2012) WEB-DLRip (Кубик в Кубе, обновляемая, RU-EN Sub)
Liss81
Стаж: 9 лет 10 мес.
Сообщений: 19
Ratio: 1,562
100%
russia.gif
ну а здесь когда будет? :задумался:
vsta
Стаж: 7 лет 4 мес.
Сообщений: 9
Ratio: 12,233
100%
Уже даже 720р там есть... и тут. Автор забил?
TollayaEkb ®
Стаж: 9 лет 10 мес.
Сообщений: 5745
Ratio: 2181,473
Раздал: 116,5 TB
Поблагодарили: 218663
100%
Откуда: Екб
russia.gif
Добавлена 6 серия. Перекачайте торрент
Elliandra
Стаж: 8 лет 8 мес.
Сообщений: 102
Ratio: 0,307
35.62%
russia.gif
Пардон за банальный вопрос, но когда примерно добавят сюда 7 серию?
Показать сообщения:   
Начать новую тему   Ответить на тему    Торрент-трекер NNM-Club -> Зарубежные сериалы -> Дневники вампира / Vampire Diaries ; Настоящая кровь / True Blood; Древние / Originals Часовой пояс: GMT + 3
Страницы:  1, 2, 3  След.
Страница 1 из 3