Классический форум-трекер
canvas not supported
Нас вместе: 4 093 622

Перелом. Хроника Победы. Серия 9. (Калининская наступательная операция) (2012) SATRip


 
 
RSS
Начать новую тему   Ответить на тему    Торрент-трекер NNM-Club -> Архив торрентов -> Архив Документалистики и TV
Автор Сообщение
svlesin ®
Модератор Документалистики/TV
RG Releasers
Релизер 25000+ Uploader 300+
 
Стаж: 10 лет 2 мес.
Сообщений: 33802
Ratio: 1813,474
Поблагодарили: 3252639
100%
russia.gif
Перелом. Хроника Победы. Серия 9. (Калининская наступательная операция) (2012) SATRip
Режиссер / Телекомпания: Звезда
Русское название: Перелом. Хроника Победы
Год выпуска: 2012
Жанр: История, документальный

Описание:
К началу декабря 41-го обстановка на советско-германском фронте в значительной степени стабилизировалась. Немецкие войска не смогли с ходу захватить Тулу, Ленинград и Москву. Калининский фронт занимал выгодное оперативное положение, глубоко охватывая с Севера немецкие войска, наступавшие на Москву. Войскам фронта противостояла 9-я армия группы армий «Центр». Противник превосходил войска фронта по количеству артиллерии и танков. Командующий группой армий «Центр» Федор фон Бок настаивал на переходе к обороне. Несмотря на запрет Гитлера – фюрер требовал только одного – взять Москву, фон Бок начал укреплять позиции. 9 декабря передовые отряды 31-й армии прорвали оборону противника, перерезали шоссе Калинин - Тургиново и создали во взаимодействии с 29-й армией угрозу окружения противника. Немецкое командование начало отводить части из города. 16 декабря Калинин был освобожден. Победа под Калинином стала крупным оперативным успехом Красной Армии, который обеспечил движение войск правого крыла Западного фронта. Были созданы более выгодные условия для продолжения наступательной операции в юго-западном направлении.

Режиссёр: Олег Четвериков

Продолжительность: ~ 00:23:59

Видеокодек: XVID
Битрейт видео: ~1647 kb/s
Размер кадра: 640 x 480
Качество видео: SATRip
Аудиокодек: MP3, 2ch.
Битрейт аудио: 128 kb/s
Формат : AVI
Формат/Информация : Audio Video Interleave
Размер файла : 306 Мбайт
Продолжительность : 23 м.
Общий поток : 1785 Кбит/сек
Программа кодирования : VirtualDubMod 1.5.10.3 | www.virtualdub-fr.org || (build 2550/release)
Библиотека кодирования : VirtualDubMod build 2550/release

Видео
Идентификатор : 0
Формат : MPEG-4 Visual
Профиль формата : Advanced Simple@L5
Параметр BVOP формата : 2
Параметр QPel формата : Нет
Параметр GMC формата : Без точки перехода
Параметр матрицы формата : Default (H.263)
Идентификатор кодека : XVID
Идентификатор кодека/Подсказка : XviD
Продолжительность : 23 м.
Битрейт : 1647 Кбит/сек
Ширина : 640 пикселей
Высота : 480 пикселей
Соотношение сторон : 4:3
Частота кадров : 25,000 кадров/сек
Цветовое пространство : YUV
Субдискретизация насыщенности : 4:2:0
Битовая глубина : 8 бит
Тип развёртки : Прогрессивная
Метод сжатия : С потерями
Бит/(Пиксели*Кадры) : 0.214
Размер потока : 283 Мбайт (92%)
Библиотека кодирования : XviD 1.2.1 (UTC 2008-12-04)

Аудио
Идентификатор : 1
Формат : MPEG Audio
Версия формата : Version 1
Профиль формата : Layer 3
Идентификатор кодека : 55
Идентификатор кодека/Подсказка : MP3
Продолжительность : 23 м.
Вид битрейта : Постоянный
Битрейт : 128 Кбит/сек
Каналы : 2 канала
Частота : 48,0 КГц
Метод сжатия : С потерями
Размер потока : 22,0 Мбайт (7%)
Выравнивание : Соединение по промежуткам
Продолжительность промежутка : 40 мс. (1,00 видеокадр)
Время предзагрузки промежутка : 504 мс.
Библиотека кодирования : LAME3.98r
Настройки программы : -m s -V 4 -q 2 -lowpass 17 -b 128
Скриншоты:


Время раздачи: 24/7. До первых 5 скачавших.
Rip by Bender
Перелом. Хроника Победы на NoNaMe Club
[NNM-Club.ru]_Perelom. Hronika Pobedyi. Seriya 09. (Kalininskaya nastupatel'naya operatsiya) (2012).avi.torrent
 Торрент: Золотая раздача  Зарегистрирован
 
Зарегистрируйтесь и скачайте торрент!
12,3 KB
Free Leech
Примагнититься
 Зарегистрирован:   13 Окт 2012 00:17:23
 Размер:   306 MB  (
 Рейтинг:   4,6 (Голосов: 17)
 Поблагодарили:   57
 Проверка:   Оформление проверено модератором 13 Окт 2012 00:18:15
Как cкачать  ·  Как раздать  ·  Правильно оформить  ·  Поднять ратио!  

_________________
Уважаемые пользователи Клуба! От меня релизов больше не будет. Может быть, буду поддерживать «Обновляемые раздачи». Спасибо всем, кто благодарил меня и говорил/нажимал «Спасибо»!
Топик был перенесен из форума Вторая Мировая война в форум Архив Документалистики и TV

Причина переноса: http://nnmclub.to/forum/viewtopic.php?t=596759
svlesin
Показать сообщения:   
Начать новую тему   Ответить на тему    Торрент-трекер NNM-Club -> Архив торрентов -> Архив Документалистики и TV Часовой пояс: GMT + 3
Страница 1 из 1