Классический форум-трекер
canvas not supported
Нас вместе: 4 095 063

Перелом. Хроника Победы. Серия 10. (Калужская наступательная операция) (2012) SATRip


 
 
RSS
Начать новую тему   Ответить на тему    Торрент-трекер NNM-Club -> Архив торрентов -> Архив Документалистики и TV
Автор Сообщение
svlesin ®
Модератор Документалистики/TV
RG Releasers
Релизер 25000+ Uploader 300+
 
Стаж: 10 лет 2 мес.
Сообщений: 33803
Ratio: 1816,424
Поблагодарили: 3252842
100%
russia.gif
Перелом. Хроника Победы. Серия 10. (Калужская наступательная операция) (2012) SATRip
Режиссер / Телекомпания: Звезда
Русское название: Перелом. Хроника Победы
Год выпуска: 2012
Жанр: История, документальный

Описание:
Основную роль в этой операции играли войска 50-й армии генерала Болдина и 49-й армии генерала Захаркина. Они должны были освободить Калугу и продолжить наступление на запад, чтобы как можно дальше отбросить противника от Москвы. Утром 17 декабря 49-я армия форсировала Оку в районе Тарусы, а 19 декабря после упорных боёв освободила город. 50-я армия решительными атаками сбила арьергарды противника и быстро продвигалась к Оке. Противник оказал упорное сопротивление. Только 30 декабря совместными усилиями подвижной группы и подошедших соединений 49-й и 50-й армий Калуга была освобождена. К концу декабря 10-я армия и 1-й гвардейский корпус во взаимодействии с партизанами форсировали на широком участке Оку. К 5 января войска левого крыла фронта освободили сотни населённых пунктов. В результате Калужской наступательной операции советские войска продвинулись на 120-130 км в западном направлении и сковали крупные оперативные резервы противника.

Режиссёр: Олег Четвериков

Продолжительность: ~ 00:23:47

Видеокодек: XVID
Битрейт видео: ~1647 kb/s
Размер кадра: 640 x 480
Качество видео: SATRip
Аудиокодек: MP3, 2ch.
Битрейт аудио: 128 kb/s
Формат : AVI
Формат/Информация : Audio Video Interleave
Размер файла : 304 Мбайт
Продолжительность : 23 м.
Общий поток : 1785 Кбит/сек
Программа кодирования : VirtualDubMod 1.5.10.3 | www.virtualdub-fr.org || (build 2550/release)
Библиотека кодирования : VirtualDubMod build 2550/release

Видео
Идентификатор : 0
Формат : MPEG-4 Visual
Профиль формата : Advanced Simple@L5
Параметр BVOP формата : 2
Параметр QPel формата : Нет
Параметр GMC формата : Без точки перехода
Параметр матрицы формата : Default (H.263)
Идентификатор кодека : XVID
Идентификатор кодека/Подсказка : XviD
Продолжительность : 23 м.
Битрейт : 1648 Кбит/сек
Ширина : 640 пикселей
Высота : 480 пикселей
Соотношение сторон : 4:3
Частота кадров : 25,000 кадров/сек
Цветовое пространство : YUV
Субдискретизация насыщенности : 4:2:0
Битовая глубина : 8 бит
Тип развёртки : Прогрессивная
Метод сжатия : С потерями
Бит/(Пиксели*Кадры) : 0.215
Размер потока : 280 Мбайт (92%)
Библиотека кодирования : XviD 1.2.1 (UTC 2008-12-04)

Аудио
Идентификатор : 1
Формат : MPEG Audio
Версия формата : Version 1
Профиль формата : Layer 3
Идентификатор кодека : 55
Идентификатор кодека/Подсказка : MP3
Продолжительность : 23 м.
Вид битрейта : Постоянный
Битрейт : 128 Кбит/сек
Каналы : 2 канала
Частота : 48,0 КГц
Метод сжатия : С потерями
Размер потока : 21,8 Мбайт (7%)
Выравнивание : Соединение по промежуткам
Продолжительность промежутка : 40 мс. (1,00 видеокадр)
Время предзагрузки промежутка : 504 мс.
Библиотека кодирования : LAME3.98r
Настройки программы : -m s -V 4 -q 2 -lowpass 17 -b 128
Скриншоты:


Время раздачи: 24/7. До первых 5 скачавших.
Rip by Bender
Перелом. Хроника Победы на NoNaMe Club
[NNM-Club.ru]_Perelom. Hronika Pobedyi. Seriya 10. (Kaluzhskaya nastupatel'naya operatsiya) (2012).avi.torrent
 Торрент: Золотая раздача  Зарегистрирован
 
Зарегистрируйтесь и скачайте торрент!
12,2 KB

Примагнититься
 Зарегистрирован:   13 Окт 2012 00:17:40
 Размер:   304 MB  (
 Рейтинг:   4,5 (Голосов: 17)
 Поблагодарили:   54
 Проверка:   Оформление проверено модератором 13 Окт 2012 00:18:23
Как cкачать  ·  Как раздать  ·  Правильно оформить  ·  Поднять ратио!  

_________________
Уважаемые пользователи Клуба! От меня релизов больше не будет. Может быть, буду поддерживать «Обновляемые раздачи». Спасибо всем, кто благодарил меня и говорил/нажимал «Спасибо»!
Топик был перенесен из форума Вторая Мировая война в форум Архив Документалистики и TV

Причина переноса: http://nnmclub.to/forum/viewtopic.php?t=596759
svlesin
Показать сообщения:   
Начать новую тему   Ответить на тему    Торрент-трекер NNM-Club -> Архив торрентов -> Архив Документалистики и TV Часовой пояс: GMT + 3
Страница 1 из 1