Классический форум-трекер
canvas not supported
Нас вместе: 4 095 087

Перелом. Хроника Победы. Серия 11. (Керченско-Феодосийская десантная операция) (2012) SATRip


 
 
RSS
Начать новую тему   Ответить на тему    Торрент-трекер NNM-Club -> Архив торрентов -> Архив Документалистики и TV
Автор Сообщение
svlesin ®
Модератор Документалистики/TV
RG Releasers
Релизер 25000+ Uploader 300+
 
Стаж: 10 лет 2 мес.
Сообщений: 33803
Ratio: 1815,885
Поблагодарили: 3252836
100%
russia.gif
Перелом. Хроника Победы. Серия 11. (Керченско-Феодосийская десантная операция) (2012) SATRip
Режиссер / Телекомпания: Звезда
Русское название: Перелом. Хроника Победы
Год выпуска: 2012
Жанр: История, документальный

Описание:
В период, когда под Москвой и Тихвином в декабре 1941 года шло контрнаступление Советской армии, обстановка на южном крыле осложнилась. Чтобы оттянуть силы противника от Севастополя, советское командование приняло решение в двухнедельный срок провести десантную операцию по овладению Керченским полуостровом, который занимала группировка противника. Доставку десанта к Феодосии осуществлял Черноморский флот, к Керчи – корабли Азовской флотилии. Перевозка войск и техники производилась из-за отсутствия специальных десантных судов на боевых кораблях и транспортных судах, в условиях штормовой погоды и при сильном противодействии противника. В ходе упорных боёв советские войска захватили плацдармы на северо-восточном побережье Керченского полуострова и в районе Феодосии, нанеся поражение керченской группировке противника, отвлекли часть вражеских сил от Севастополя и предотвратили возможность вторжения немецких войск на Кавказ. Перелом, на который так надеялся Гитлер, не случился. Но слово «перелом» все чаще стало звучать в Ставке Верховного Главнокомандования в Москве.

Режиссёр: Олег Четвериков

Продолжительность: ~ 00:24:14

Видеокодек: XVID
Битрейт видео: ~1647 kb/s
Размер кадра: 640 x 480
Качество видео: SATRip
Аудиокодек: MP3, 2ch.
Битрейт аудио: 128 kb/s
Формат : AVI
Формат/Информация : Audio Video Interleave
Размер файла : 309 Мбайт
Продолжительность : 24 м.
Общий поток : 1785 Кбит/сек
Программа кодирования : VirtualDubMod 1.5.10.3 | www.virtualdub-fr.org || (build 2550/release)
Библиотека кодирования : VirtualDubMod build 2550/release

Видео
Идентификатор : 0
Формат : MPEG-4 Visual
Профиль формата : Advanced Simple@L5
Параметр BVOP формата : 2
Параметр QPel формата : Нет
Параметр GMC формата : Без точки перехода
Параметр матрицы формата : Default (H.263)
Идентификатор кодека : XVID
Идентификатор кодека/Подсказка : XviD
Продолжительность : 24 м.
Битрейт : 1647 Кбит/сек
Ширина : 640 пикселей
Высота : 480 пикселей
Соотношение сторон : 4:3
Частота кадров : 25,000 кадров/сек
Цветовое пространство : YUV
Субдискретизация насыщенности : 4:2:0
Битовая глубина : 8 бит
Тип развёртки : Прогрессивная
Метод сжатия : С потерями
Бит/(Пиксели*Кадры) : 0.214
Размер потока : 286 Мбайт (92%)
Библиотека кодирования : XviD 1.2.1 (UTC 2008-12-04)

Аудио
Идентификатор : 1
Формат : MPEG Audio
Версия формата : Version 1
Профиль формата : Layer 3
Идентификатор кодека : 55
Идентификатор кодека/Подсказка : MP3
Продолжительность : 24 м.
Вид битрейта : Постоянный
Битрейт : 128 Кбит/сек
Каналы : 2 канала
Частота : 48,0 КГц
Метод сжатия : С потерями
Размер потока : 22,2 Мбайт (7%)
Выравнивание : Соединение по промежуткам
Продолжительность промежутка : 40 мс. (1,00 видеокадр)
Время предзагрузки промежутка : 504 мс.
Библиотека кодирования : LAME3.98r
Настройки программы : -m s -V 4 -q 2 -lowpass 17 -b 128
Скриншоты:


Время раздачи: 24/7. До первых 5 скачавших.
Rip by Bender
Перелом. Хроника Победы на NoNaMe Club
[NNM-Club.ru]_Perelom. Hronika Pobedyi. Seriya 11. (Kerchensko-Feodosiyskaya desantnaya operatsiya) (2012).avi.torrent
 Торрент: Золотая раздача  Зарегистрирован
 
Зарегистрируйтесь и скачайте торрент!
12,4 KB

Примагнититься
 Зарегистрирован:   13 Окт 2012 00:17:58
 Размер:   309 MB  (
 Рейтинг:   4,6 (Голосов: 14)
 Поблагодарили:   57
 Проверка:   Оформление проверено модератором 13 Окт 2012 00:18:31
Как cкачать  ·  Как раздать  ·  Правильно оформить  ·  Поднять ратио!  

_________________
Уважаемые пользователи Клуба! От меня релизов больше не будет. Может быть, буду поддерживать «Обновляемые раздачи». Спасибо всем, кто благодарил меня и говорил/нажимал «Спасибо»!
Топик был перенесен из форума Вторая Мировая война в форум Архив Документалистики и TV

Причина переноса: http://nnmclub.to/forum/viewtopic.php?t=596759
svlesin
Показать сообщения:   
Начать новую тему   Ответить на тему    Торрент-трекер NNM-Club -> Архив торрентов -> Архив Документалистики и TV Часовой пояс: GMT + 3
Страница 1 из 1