Классический форум-трекер
canvas not supported
Нас вместе: 4 093 747

Дневники вампира / The Vаmрirе Diаriеs (Сезон 4 полный (23)) (2012) WEB-DLRip (Lostfilm)


 
 
RSS
Начать новую тему   Ответить на тему    Торрент-трекер NNM-Club -> Зарубежные сериалы -> Дневники вампира / Vampire Diaries ; Настоящая кровь / True Blood; Древние / Originals
Автор Сообщение
TollayaEkb ®
Стаж: 9 лет 10 мес.
Сообщений: 5745
Ratio: 2181,473
Раздал: 116,5 TB
Поблагодарили: 218664
100%
Откуда: Екб
russia.gif
Дневники вампира / The Vаmрirе Diаriеs
(Сезон 4, серии 01-23 из 23) (2012) WEB-DLRip (Lostfilm)


Русское название: Дневники вампира
Оригинальное название: The Vаmрirе Diаriе
Год выхода: 2012
Производство: США, CW
Жанр: Ужасы, фэнтези, драма
Сезон: 4
Серии: 01-23 из 23 серий
Продолжительность: ~ 42:00 мин серия



Перевод: Профессиональный многолосый закадровый - Lostfilm

Режиссер: Маркос Сига
В ролях: Нина Добрев, Пол Уэсли, Йен Сомерхалдер, Катерина Грэхэм, Стивен Р. МакКуин, Бенджамин Эйрс, Стив Белфорд, Сара Каннинг, Кайла Юэлл, Марси Т. Хаус и др.


Описание:
Стефан и Елена тут же чувствуют взаимную симпатию, но Елена даже не подозревает, что Стефан — вампир, которому уже сотни лет, и который старается мирно жить среди людей, несмотря на то, что его брат, Дэймон — воплощение вампирской жестокости и кровожадности. Теперь два брата-вампира — один добрый, другой злой — ведут борьбу за души Елены, ее друзей и других жителей городка Мистик Фоллз.
4 сезон. Современные убийства в Мистик Фоллс напоминают Дэймону о схожих преступлениях, происходивших сто лет назад. Во флешбэках из 1912го года Дэймон вспоминает прекрасную вампиршу Сэйдж, которая показала ему, что жить можно совсем по-другому. Шериф Форбс предупреждает Дэймона, чтобы он не ввязывался в расследование, но он уверен, что она подозревает не того. Елена с Мэттом устраивают взлом, пытаясь найти улики против доктора Фелл, которую считают убийцей. По известным только ей самой причинам Ребекка начинает интересоваться расположением одной из старейших достопримечательностей города. Елена наконец-то начинает понимать, что ее жизнь пошла в другом направлении, а Дэймон совершает эмоциональное признание Стефану.


Качество: WEB-DLRip
Видео: XviD, 927 Кбит/с, 720x400, 23.976 fps, 0.134
Аудио: MP3, 48.0 KHz, 2 ch, 128 Кбит/с (RU)
| Сэмпл видео | Все раздачи|
\\\The.Vampire.Diaries.S04E01.rus.LostFilm.TV.avi
Format : AVI
Format/Info : Audio Video Interleave
File size : 326 MiB
Duration : 42mn 39s
Overall bit rate : 1 068 Kbps
Writing application : Nandub v1.0rc2
Writing library : Nandub build 1853/release
Video #0
ID : 0
Format : MPEG-4 Visual
Format profile : Simple@L3
Format settings, BVOP : No
Format settings, QPel : No
Format settings, GMC : No warppoints
Format settings, Matrix : Default (H.263)
Codec ID : XVID
Codec ID/Hint : XviD
Duration : 42mn 39s
Bit rate : 927 Kbps
Width : 720 pixels
Height : 400 pixels
Display aspect ratio : 16:9
Frame rate : 23.976 fps
Resolution : 24 bits
Colorimetry : 4:2:0
Scan type : Progressive
Bits/(Pixel*Frame) : 0.134
Stream size : 283 MiB (87%)
Writing library : XviD 1.2.1 (UTC 2008-12-04)
Audio #1
ID : 1
Format : MPEG Audio
Format version : Version 1
Format profile : Layer 3
Codec ID : 55
Codec ID/Hint : MP3
Duration : 42mn 39s
Bit rate mode : Constant
Bit rate : 128 Kbps
Channel(s) : 2 channels
Sampling rate : 48.0 KHz
Resolution : 16 bits
Stream size : 39.1 MiB (12%)
Alignment : Aligned on interleaves
Interleave, duration : 24 ms (0.58 video frame)
Interleave, preload duration : 480 ms

<<<Скриншоты>>>

Время раздачи: 24/7 - круглосуточно (до первых сидов - потом по возможности)
[NNM-Club.ru]_Vampire.Diaries.S04.LostFilm.torrent
 Торрент: Платиновая раздача  Зарегистрирован
 
Скачать


 Зарегистрирован:   18 Май 2013 19:52:40
 Размер:   8,31 GB  (
 Рейтинг:   4,7 (Голосов: 297)
 Поблагодарили:   1091
 Проверка:   Оформление проверено модератором 18 Май 2013 22:18:45
Как cкачать  ·  Как раздать  ·  Правильно оформить  ·  Поднять ратио!  
Fataken
Стаж: 10 лет 4 мес.
Сообщений: 129
Ratio: 3,874
60.56%
japan.gif
её убили? если нет,то смотреть небуду=(

_________________
нет более искренней улыбки,чем злорадная...
ef-ni
Стаж: 9 лет 3 мес.
Сообщений: 28
Ratio: 0,539
Раздал: 15,6 GB
100%
Откуда: Брянск
russia.gif
Да убили Елену

_________________
Негодяи в наши дни так похожи на честных людей, что честному человеку, для отличия, надо быть похожим на негодяя.
oleshkosa
Стаж: 7 лет 11 мес.
Сообщений: 19
Ratio: 7,958
2.35%
Откуда: Донбасс
ussr.gif
Я не пойму, что так редко выкладывают, 1 серия в неделю чтоли выходит???
MagnoJIiya22
Стаж: 7 лет 3 мес.
Сообщений: 13
Ratio: 13,484
100%
Откуда: Страна Фей
nnm-club.gif
TollayaEkb
Спасибо большое за раздачу! Ждём 6-ю серию...
Azizjaj
Стаж: 7 лет 3 мес.
Сообщений: 1
Ratio: 1,98
100%
Не подскажите, когда ждать 7?
Dimasssik2011
Стаж: 8 лет 5 мес.
Сообщений: 38
Ratio: 7,349
100%
Откуда: Ростов-на-Дону
russia.gif
Спасибочки!!!
Torrent King
Стаж: 7 лет 9 мес.
Сообщений: 657
Ratio: 105,505
Раздал: 11,15 TB
Поблагодарили: 4560
100%
Откуда: Кинешма
Спасибо большое.

_________________
FideL86
 
Стаж: 8 лет 6 мес.
Сообщений: 122
Ratio: 32,463
100%
Откуда: The capital of Russia
russia.gif
Спасибо за регулярные обновления!!!

_________________
То, что мы сделали, должно было научить нас, что невозможного нет. Ведь то, что казалось невозможным вчера, стало возможным сегодня. И поэтому ничто не покажется нам невозможным завтра!
eka.grexowa
Стаж: 9 лет 2 мес.
Сообщений: 3
Ratio: 5,628
100%
СПАСИБО!!!!! Браво!
TollayaEkb ®
Стаж: 9 лет 10 мес.
Сообщений: 5745
Ratio: 2181,473
Раздал: 116,5 TB
Поблагодарили: 218664
100%
Откуда: Екб
russia.gif
Добавлена серия 23. Перекачайте торрент
Tombdemon
Стаж: 8 лет 10 мес.
Сообщений: 44
Ratio: 1,936
100%
Откуда: Петербург
russia.gif
спасибо
Devel87
Стаж: 6 лет 6 мес.
Сообщений: 1278
Ratio: 45,153
100%
vietnam.gif
Все 3 сезона есть на дисках,но вот четвертого нет.Благодарю за релиз
Goloker
Стаж: 6 лет 10 мес.
Сообщений: 1
Ratio: 90,389
100%
Спасибо большое, как раз мой размерчик :супер!:
Показать сообщения:   
Начать новую тему   Ответить на тему    Торрент-трекер NNM-Club -> Зарубежные сериалы -> Дневники вампира / Vampire Diaries ; Настоящая кровь / True Blood; Древние / Originals Часовой пояс: GMT + 3
Страница 1 из 1