Классический форум-трекер
canvas not supported
Нас вместе: 4 094 203

Дневники вампира / The Vampire Diaries [4 сезон: 2 серия из 22] (2012) WEB-DLRip


 
 
RSS
Начать новую тему   Ответить на тему    Торрент-трекер NNM-Club -> Архив торрентов -> Архив Сериалов, а также Архив Старого многосерийного кино до 90-х
Автор Сообщение
ZoNoW ®
Модератор Видео
Стаж: 8 лет 9 мес.
Сообщений: 7369
Ratio: 675K
Раздал: 81,1 TB
Поблагодарили: 3399643
100%
ussr.gif
Дневники вампира / The Vampire Diaries [4 сезон: 2 серия из 22] (2012) WEB-DLRip
Русское название: Дневники вампира
Оригинальное название: The Vampire Diaries
Год выпуска: 2012
Жанр: Драма, Мелодрама, Ужасы

Перевод: Двуголосый закадровый, профессиональный
Вид субтитров: Отдельным файлом
Язык субтитров: Русские, английские



Режиссер: Маркос Сига, Роб Харди, Дэвид Фон Энкен, Дж. Миллер Тобин, Джон Беринг, Джошуа Батлер, Джон Дал, Лиз Фридлендер, Крис Грисмер, Венди Станцлер, Кевин Брэй
Актеры: Нина Добрев, Пол Уэсли, Йен Сомерхалдер, Стивен Р. МакКуин, Катерина Грэхэм, Кэндис Аккола, Зак Рериг, Майкл Тревино, Джозеф Морган, Сара Каннинг, Кайла Юэлл, Дэвид Андерс, Клер Холт, Тейлор Кинни, Келли Ху, Роберт Пралго, Брайтон МакКлур, Михаэлла МакМанус, Джэсмин Гай, Рэнди Дж. Гудвин, Миа Киршнер, Лорен Коэн, Крис Дж. Джонсон, Себастьян Роше, Торри ДеВито, Бьянка Лоусон, Джек Коулмэн, Доун Оливери

Описание фильма:
Современные убийства в Мистик Фоллс напоминают Дэймону о схожих преступлениях, происходивших сто лет назад. Во флешбэках из 1912го года Дэймон вспоминает прекрасную вампиршу Сэйдж, которая показала ему, что жить можно совсем по-другому. Шериф Форбс предупреждает Дэймона, чтобы он не ввязывался в расследование, но он уверен, что она подозревает не того. Елена с Мэттом устраивают взлом, пытаясь найти улики против доктора Фелл, которую считают убийцей. По известным только ей самой причинам Ребекка начинает интересоваться расположением одной из старейших достопримечательностей города. Елена наконец-то начинает понимать, что ее жизнь пошла в другом направлении, а Дэймон совершает эмоциональное признание Стефану.

Продолжительность: 00:42:09
Качество видео: WEB-DLRip

Видеокодек: Xvid
Битрейт видео: 1001 kb/s
Размер кадра: 624x352
Audio #1: 48 kHz, MPEG Layer 3, 2 ch, ~192.00 kbps avg | Русский |
Audio #2: 48 kHz, MPEG Layer 3, 2 ch, ~192.00 kbps avg | Английский |
Код:
Общее
Полное имя                       : D:\НЕ УДАЛЯТЬ!!!\Dnevniki vampira 4 sezon 2012 Kybik v Kybe\Dnevniki.vampira.4.sezon.02.2012.Kybik.v.Kybe.avi
Формат                           : AVI
Формат/Информация                : Audio Video Interleave
Размер файла                     : 422 Мбайт
Продолжительность                : 42 м.
Общий поток                      : 1400 Кбит/сек
Программа кодирования            : VirtualDubMod 1.5.10.2 (build 2540/release)
Библиотека кодирования           : VirtualDubMod build 2540/release

Видео
Идентификатор                    : 0
Формат                           : MPEG-4 Visual
Профиль формата                  : Advanced Simple@L5
Параметр BVOP формата            : 1
Параметр QPel формата            : Нет
Параметр GMC формата             : Без точки перехода
Параметр матрицы формата         : Default (H.263)
Идентификатор кодека             : XVID
Идентификатор кодека/Подсказка   : XviD
Продолжительность                : 42 м.
Битрейт                          : 1001 Кбит/сек
Ширина                           : 624 пикселя
Высота                           : 352 пикселя
Соотношение сторон               : 16:9
Частота кадров                   : 23,976 кадра/сек
Цветовое пространство            : YUV
Субдискретизация насыщенности    : 4:2:0
Битовая глубина                  : 8 бит
Тип развёртки                    : Прогрессивная
Метод сжатия                     : С потерями
Бит/(Пиксели*Кадры)              : 0.190
Размер потока                    : 302 Мбайт (72%)
Библиотека кодирования           : XviD 65

Аудио #1
Идентификатор                    : 1
Формат                           : MPEG Audio
Версия формата                   : Version 1
Профиль формата                  : Layer 3
Идентификатор кодека             : 55
Идентификатор кодека/Подсказка   : MP3
Продолжительность                : 42 м.
Вид битрейта                     : Постоянный
Битрейт                          : 192 Кбит/сек
Каналы                           : 2 канала
Частота                          : 48,0 КГц
Метод сжатия                     : С потерями
Размер потока                    : 57,9 Мбайт (14%)
Выравнивание                     : Соединение по промежуткам
Продолжительность промежутка     : 42  мс. (1,00 видеокадр)
Время предзагрузки промежутка    : 504  мс.

Аудио #2
Идентификатор                    : 2
Формат                           : MPEG Audio
Версия формата                   : Version 1
Профиль формата                  : Layer 3
Идентификатор кодека             : 55
Идентификатор кодека/Подсказка   : MP3
Продолжительность                : 42 м.
Вид битрейта                     : Постоянный
Битрейт                          : 192 Кбит/сек
Каналы                           : 2 канала
Частота                          : 44,1 КГц
Метод сжатия                     : С потерями
Размер потока                    : 57,9 Мбайт (14%)
Выравнивание                     : Разделение по промежуткам
Продолжительность промежутка     : 42  мс. (1,00 видеокадр)
Время предзагрузки промежутка    : 500  мс.
Библиотека кодирования           : LAME3.98


Скриншоты:


Приятного просмотра
и не забываем говорить СПАСИБО...

Все части сериала на NNM-Club

Время раздачи: 24/7,
до 5 скачавших.
[NNM-Club.ru]_Dnevniki vampira 4 sezon 2012 Kybik v Kybe.torrent
 Торрент: Золотая раздача  Зарегистрирован
 
Зарегистрируйтесь и скачайте торрент!
17 KB
Free Leech
 Зарегистрирован:   20 Окт 2012 08:25:02
 Размер:   422 MB  (
 Рейтинг:   4,6 (Голосов: 20)
 Поблагодарили:   54
 Проверка:   Внимание! Оформление не проверено модератором!
Как cкачать  ·  Как раздать  ·  Правильно оформить  ·  Поднять ратио!  
TollayaEkb
Стаж: 9 лет 10 мес.
Сообщений: 5745
Ratio: 2181,476
Раздал: 116,5 TB
Поблагодарили: 218671
100%
Откуда: Екб
russia.gif
ZoNoW - по серийно что ли собираетесь раздавать???
chelovek59
Стаж: 12 лет 3 мес.
Сообщений: 326
Ratio: 20,675
100%
ussr.gif
На самом деле! Делайте одну раздачу!!!
Топик был перенесен из форума Зарубежные сериалы в форум Архив Сериалов


sentinel2727
_маруся_
Стаж: 10 лет 2 мес.
Сообщений: 62
Ratio: 1,559
100%
Откуда: Ростов на Дону
санта барбара номер два..
Показать сообщения:   
Начать новую тему   Ответить на тему    Торрент-трекер NNM-Club -> Архив торрентов -> Архив Сериалов, а также Архив Старого многосерийного кино до 90-х Часовой пояс: GMT + 3
Страница 1 из 1