Классический форум-трекер
canvas not supported
Нас вместе: 4 079 312

Секретные материалы / The X-Files (1993-2008) DVDRip [H.264] (сезон 1-9 + Борьба за будущее + Хочу верить + бонусы)


Страницы:   Пред.  1, 2, 3  След. 
 
RSS
Начать новую тему   Ответить на тему    Торрент-трекер NNM-Club -> Зарубежные сериалы -> Секретные материалы / X-Files
Автор Сообщение
esayhetg ®
Стаж: 9 лет 5 мес.
Сообщений: 532
Ratio: 312,054
Поблагодарили: 46186
100%
ussr.gif
Секретные материалы (сезон 1-9) + Борьба за будущее + Хочу верить + бонусы / The X-Files (season 1-9) + Fight the Future + Want to believe + bonuses(1993 - 2008) DVDRip-AVC
Русское название: Секретные материалы (сезон 1-9) + Борьба за будущее + Хочу верить + бонусы
Оригинальное название: The X-Files (season 1-9) + Fight the Future + Want to believe + bonuses
Год выпуска: 1993 - 2008
Жанр: Фантастика

Перевод: Многоголосый закадровый - RenTV


Дата мировой премьеры: 10 сентября 1993

Режиссер: Крис Картер, Роб Боумэн
Актеры: Дэвид Духовны, Джиллиан Андерсон, Митч Пилегги, Уильям Б. Дэвис, Николас Ли, Том Брэйдвуд, Дин Хаглунд, Брюс Харвуд

Описание:
Специальному агенту Дане Скалли, доктору и преподавателю академии ФБР в Вирджинии, поручают работу в паре с агентом Фоксом Малдером над проектом «Секретные материалы», архивом таинственных, нерешенных дел ФБР, которые зачастую связаны с паранормальными явлениями, случаями вампиризма и оборотничества, нападением генетических мутантов, свидетельствами о похищении людей пришельцами…
Малдер верит в пришельцев и пытается убедить скептика Скалли, что не всё и не всегда поддаётся разумному объяснению. В своих дискуссиях Малдер и Скалли не столько стараются убедить друг друга, сколько получают удовольствие от самого общения. Постепенно первоначальное взаимное недоверие перерастает в дружбу, а чуть позже и в более глубокое чувство.
Телефон Малдера в сериале — 555-01-99. Этот номер принадлежит также семейству Берманов в фильме «Красота по-американски». И тот же самый телефон Аль Пачино оставляет на автоответчике Рассела Кроу в фильме «Свой человек».
Малдер пользуется пистолетом Glock (в первом сезоне), а также Вальтером в ножной кобуре. Скалли использует только Walther PPK/S.
Упоминается в книге Стивена Кинга «Девочка, которая любила Тома Гордона».
В серии 1x13 «Трансвестит» («Gender Bender») на 5 минуте, когда Малдер осматривает труп, видно, как этот «труп» моргает.
Актёр Николас Лиа, который играл, начиная со второго сезона, Алекса Крайчека, засветился также в эпизоде 1x13 «Трансвестит» («Gender Bender»), где появляется в роли одной из жертв; Скалли и Малдер допрашивают его в больнице примерно на 35 минуте.
В первом эпизодe (Pilot) человек, сидящий за Скалли в самолете, это отец Дэвида Духовны.
В серии 1x12 «За морем» («Beyond the Sea») на 8,10 минуте видна на вешалке кепка, эту кепку Фокс Малдер взял после смерти Макса Феникса из серии 1x9 «Падший ангел» («Fallen Angel») на 40 минуте.
Фокс Малдер и Дана Скалли на протяжении всего сериала используют арендованные автомобили. При этом фирма, которая предоставляет авто, всегда одна и носит название Lariat (об этом говорят наклейки на бамперах машин агентов).
Второй эпизод девятого сезона «Секретных материалов» (Nothing Important Happened Today II) посвящен Чаду Келлеру (Chad Keller), о чем сообщается перед финальными титрами серии. Чад Келлер был ученым, занятым в аэрокосмической промышленности и являлся близким другом Криса Картера и его супруги. Он погиб во время атаки террористов в Нью-Йорке в сентябре 2001 года.
Ричард Белцер, известный по роли детектива Манча из сериала «Закон и порядок: Специальный корпус», появляется в 3 серии 5-го сезона в роли все того же детектива Манча.
Популярный американский телесериал «Секретные материалы» у нас первоначально демонстрировался на канале Ren-TV, аудитория которого была всё-таки неизмеримо меньше, чем у тогдашнего ОРТ. А вот там вполне разумно решили подгадать начало показа приобретшего даже культовый статус странного и загадочного телезрелища именно к выходу в российских кинотеатрах в октябре 1998 года фильма «Секретные материалы. Борьба с будущим», который стал своеобразным ответвлением от сериала.

Что ж — не смотреть же отечественным зрителям одни лишь латиноамериканские «мыльные оперы» да американскую «Санта-Барбару»… И пусть народ для разнообразия начнёт всюду подозревать присутствие неких нездешних сил. Может, это и должно было, по идее, помочь (кстати, вскоре после случившегося дефолта) пережить, как всегда, сложную и неразрешимую ситуацию в России, где многое поневоле кажется порождением неведомого заговора против собственного населения.

Уже дебютная серия «Секретных материалов» вольно или невольно вызвала в памяти другой известный телецикл — «Твин Пикс», так что сразу же возник немалый соблазн обозвать иное мистическое творение для голубого экрана как «Твин Икс». Ведь и там, и здесь юные девушки из колледжа стали жертвами неведомого маньяка, точнее — невидимой силы зла, будто разлитой в воздухе где-то в одноэтажной Америке, посреди её лесов, гор и небольших городишек. Вот и в «Твин Пиксе» загадочный убийца Боб, словно порождение тёмных сторон бытия, мог обретать любое обличье, теоретически становиться каждым из жителей городка с лесопилкой, в конце концов (к явному неудовольствию поклонников сериала), даже проникнуть в самого агента Купера, благородного борца с мрачной непознаваемостью мира.

А вторая и четвёртая части «Секретных материалов» вступили в перекличку с этапной лентой «Близкие контакты третьего вида» Стивена Спилберга, которая на тот момент уже в течение двух десятилетий безусловно влияла на проблематику произведений о гипотетическом контакте с инопланетными цивилизациями. В свою очередь, третий эпизод сериала мог напомнить ещё один устойчивый мотив фантастики о «вторжении похитителей тел» (было уже три фильма с этим сюжетом, и последний из них снял модный независимый режиссёр Абел Феррара).

Всё это свидетельствовало отнюдь не о заимствованиях, а о несомненной укоренённости данных идей в современном зрительском самосознании — причём не только американцев, но и (судя по успеху «Твин Пикса» и «Секретных материалов» далеко за пределами Америки) других жителей Земли. Дело не в одной лишь тяге к мистике, к чему-то непознанному и неизведанному, что особенно обостряется в конце каждого века, когда неумолимо возрастает рост интереса к оккультизму и эзотерике. Чего уж говорить о тревожных, чуть ли не апокалиптических настроениях во время смены тысячелетий! Кстати, Крис Картер, создатель «Секретных материалов» (забавно, что он родился хоть и 13-го, но в субботу), запустил на телевидении в 1996—1999 годы ещё один удачный таинственный цикл под названием «Тысячелетие».

Найденная Картером формула успеха зиждется на том же мастерски использованном, как и Дэвидом Линчем в «Твин Пиксе», по-хорошему обывательском, адаптированном для понимания миллионов (пусть это не исключает сверхинтеллектуальных, заумных трактовок) представлении об окружающем мире как истинном средоточии борьбы сил Добра и Зла, Света и Тьмы, Бога и Дьявола. Причём двое агентов ФБР из отдела паранормальных явлений — мужчина по имени Фокс Малдер и женщина, которую зовут Дэна Скалли, — выступают ещё и в качестве посредников между тайным и явным, будто полпредами публики в своеобразном зазеркалье, легко позволяя самым обычным зрителям идентифицировать себя с ними. А «домашность», доступность еженедельного знакомства с этими героями порой при весьма загадочных обстоятельствах, всё же не отягощённых глобальностью подхода и гигантоманией в использовании спецэффектов, как раз и превращает данное зрелище во вполне вероятное, даже правдоподобное и странным образом убедительное.

В отличие от «Твин Пикса», в «Секретных материалах» каждая часть практически самостоятельна, поскольку Фокс Малдер и Дэна Скалли занимаются всегда новым засекреченным делом. Впрочем, есть и сквозные темы (например, явно ощущаемый, но остающийся не до конца разгаданным некий заговор пришельцев и их сторонников, которые способствуют скрытой колонизации Земли), и кое-какие переходящие из серии в серию персонажи — вроде непонятного Курильщика, вероятно, стоящего во главе представителей инопланетного вторжения.

Сериал «Секретные материалы» просуществовал в США десять сезонов, но теоретически мог продолжаться долго, поскольку интерес публики к различным сверхъестественным явлениям вовсе не гаснет. Если этот цикл и был в итоге принесён в жертву, то во многом из-за возросших претензий (в том числе — денежных) его основных исполнителей, Дэвида Дуковни и Джиллиан Андерсон, которым также надоело быть заложниками одного лишь телепроизведения, а больше хотелось играть разнообразные роли в кино.
Продолжительность: ~00:44:00 серия
Качество видео: DVDRip

1 сезон / 1 season (1993-1994)
Режиссер: Крис Картер/Chris Carter

Описание: 1 сезон сериала Секретные материалы состоит из 23-х эпизодов. Напарником специального агента Фокса Малдера назначена Дана Скалли, которая должна дать оценку его работе в проекте Секретные материалы. Он с детства верит, что его сестру похитили инопланетяне. Агентам, пытающимся доказать существование инопланетных цивилизаций и использование их технологий военными, предстоит вступить в противоборство с тайными силами в правительстве, которые им будут мешать. Тайный информатор помогает агентам Скалли и Малдеру разгадывать все новые и новые тайны.
1x00 - Pilot (Пилотная серия)
1x01 - Deep Throat (Глубокая глотка)
1x02 - Squeeze (Узкий)
1x03 - Conduit (Канал)
1x04 - The Jersey Devil (Дьявол из Джерси)
1x05 - Shadows (Тени)
1x06 - Ghost in the Machine (Дух из машины)
1x07 - Ice (Лёд)
1x08 - Space (Космос)
1x09 - Fallen Angel (Падший ангел)
1x10 - Eve (Ева)
1x11 - Fire (Огонь)
1x12 - Beyond the Sea (Где-то за морем)
1x13 - Gender-Bender (Транссексуал)
1x14 - Lazarus (Лазарь)
1x15 - Young at Heart (Юный сердцем)
1x16 - E.B.E. (В.Б.О.)
1x17 - Miracle Man (Чудотворец)
1x18 - Shapes (Сущности)
1x19 - Darkness Falls (И пала тьма)
1x20 - Tooms (Тумс)
1x21 - Born Again (Заново рождённый)
1x22 - Roland (Роланд)
1x23 - The Erlenmeyer Flask (Колба Эрленмейера)
Видео: H.264, 2383 Кбит/сек, 720x480 (640x480) , 23,976 кадра/сек
Аудио 1: Russian AC3, 2 канала, 128 Кбит/с, CBR - REN-TV
Аудио 2: English AC3, 2 канала, 192 Кбит/с, CBR - Оригинал
Сэмпл: Скачать
Общее
Уникальный идентификатор : 245790514571661677534200219435443548980 (0xB8E987FD1DA6FB26A9B5FE739B75F334)
Формат : Matroska
Версия формата : Version 2
Размер файла : 844 Мбайт
Продолжительность : 42 м.
Режим общего битрейта : Переменный
Общий поток : 2758 Кбит/сек
Дата кодирования : UTC 2012-10-18 17:27:38
Программа кодирования : mkvmerge v5.8.0 ('No Sleep / Pillow') built on Sep 2 2012 15:37:04
Библиотека кодирования : libebml v1.2.3 + libmatroska v1.3.0

Видео
Идентификатор : 1
Формат : AVC
Формат/Информация : Advanced Video Codec
Профиль формата : High@L3.2
Параметр CABAC формата : Да
Параметр ReFrames формата : 8 кадров
Режим смешивания : Header stripping
Идентификатор кодека : V_MPEG4/ISO/AVC
Продолжительность : 42 м.
Вид битрейта : Переменный
Битрейт : 2383 Кбит/сек
Максимальный битрейт : 40,0 Мбит/сек
Ширина : 720 пикселей
Высота : 480 пикселей
Соотношение сторон : 4:3
Режим частоты кадров : Постоянный
Частота кадров : 23,976 кадра/сек
Стандарт вещания : NTSC
Цветовое пространство : YUV
Субдискретизация насыщенности : 4:2:0
Битовая глубина : 8 бит
Тип развёртки : Прогрессивная
Бит/(Пиксели*Кадры) : 0.288
Размер потока : 729 Мбайт (86%)
Библиотека кодирования : x264 core 115 r1995 c1e60b9
Настройки программы : cabac=1 / ref=8 / deblock=1:-1:-1 / analyse=0x3:0x133 / me=umh / subme=9 / psy=1 / psy_rd=1.00:0.15 / mixed_ref=1 / me_range=16 / chroma_me=1 / trellis=2 / 8x8dct=1 / cqm=0 / deadzone=21,11 / fast_pskip=1 / chroma_qp_offset=-3 / threads=2 / sliced_threads=0 / nr=0 / decimate=1 / interlaced=0 / bluray_compat=0 / constrained_intra=0 / bframes=3 / b_pyramid=2 / b_adapt=2 / b_bias=0 / direct=3 / weightb=1 / open_gop=0 / weightp=2 / keyint=250 / keyint_min=23 / scenecut=40 / intra_refresh=0 / rc_lookahead=60 / rc=crf / mbtree=1 / crf=18.0 / qcomp=0.60 / qpmin=0 / qpmax=69 / qpstep=4 / ip_ratio=1.40 / aq=1:1.0
Default : Да
Forced : Нет

Аудио #1
Идентификатор : 2
Формат : AC-3
Формат/Информация : Audio Coding 3
Расширение режима : CM (complete main)
Параметр Endianness формата : Big
Режим смешивания : Header stripping
Идентификатор кодека : A_AC3
Продолжительность : 42 м.
Вид битрейта : Постоянный
Битрейт : 128 Кбит/сек
Каналы : 2 канала
Расположение каналов : Front: L R
Частота : 48,0 КГц
Битовая глубина : 16 бит
Метод сжатия : С потерями
Размер потока : 39,2 Мбайт (5%)
Язык : Russian
Default : Да
Forced : Нет

Аудио #2
Идентификатор : 3
Формат : AC-3
Формат/Информация : Audio Coding 3
Расширение режима : CM (complete main)
Параметр Endianness формата : Big
Режим смешивания : Header stripping
Идентификатор кодека : A_AC3
Продолжительность : 42 м.
Вид битрейта : Постоянный
Битрейт : 192 Кбит/сек
Каналы : 2 канала
Расположение каналов : Front: L R
Частота : 48,0 КГц
Битовая глубина : 16 бит
Метод сжатия : С потерями
Задержка видео : 300 мс.
Размер потока : 58,7 Мбайт (7%)
Язык : English
Default : Нет
Forced : Нет
Скриншоты:


2 сезон / 2 season (1994-1995)
Режиссер: Крис Картер/Chris Carter

Описание: Во 2 сезоне Секретных материалов 25 эпизодов. Несмотря на то, что на них давят тайные силы в правительстве спецагенты Фокс Малдер и Дана Скалли продолжают свои расследования, стремясь доказать не только факт существования пришельцев, но и то, что технологиями внеземных цивилизаций пользуются военные. Им грозит реальная опасность – сначала похищается Скалли, затем организуется покушение на Малдера и, наконец, их противники наносят враги по семьям героев.
2x01 - Little Green Men (Маленькие зелёные человечки)
2x02 - The Host (Хозяин)
2x03 - Blood (Кровь)
2x04 - Sleepless (Неспящий)
2x05 - Duane Barry (Дуэйн Бэрри)
2x06 - Ascension (Восхождение)
2x07 - 3 (Троица)
2x08 - One Breath (Один вздох)
2x09 - Firewalker (Огнеход)
2x10 - Red Museum (Красный музей)
2x11 - Excelsius Dei (Слава Господня)
2x12 - Aubrey (Обри)
2x13 - Irresistible (Неотразимый)
2x14 - Die Hand Die Verletzt (Длань Наказующая)
2x15 - Fresh Bones (Свежие кости)
2x16 - Colony (Колония)
2x17 - End Game (Конец игры)
2x18 - Fearful Symmetry (Ужасающая симметрия)
2x19 - Dod Kalm (Точка спокойствия)
2x20 - Humbug (Розыгрыш)
2x21 - The Calusari (Калушари)
2x22 - F. Emasculata (Ф. Эмаскулата)
2x23 - Soft Light (Рассеяный свет)
2x24 - Our Town (Наш городок)
2x25 - Anasazi (Анасази)
Видео: H.264, 1928 Кбит/сек, 720x480 (640x480) , 23,976 кадра/сек
Аудио 1: Russian AC3, 2 канала, 128 Кбит/с, CBR - REN-TV
Аудио 2: English AC3, 2 канала, 192 Кбит/с, CBR - Оригинал
Сэмпл: Скачать
Общее
Уникальный идентификатор : 191368502574273178030944635222688608881 (0x8FF83BA2BE96F0DD955D67FFB4A53271)
Формат : Matroska
Версия формата : Version 2
Размер файла : 741 Мбайт
Продолжительность : 45 м.
Режим общего битрейта : Переменный
Общий поток : 2294 Кбит/сек
Дата кодирования : UTC 2012-10-18 18:40:04
Программа кодирования : mkvmerge v5.8.0 ('No Sleep / Pillow') built on Sep 2 2012 15:37:04
Библиотека кодирования : libebml v1.2.3 + libmatroska v1.3.0

Видео
Идентификатор : 1
Формат : AVC
Формат/Информация : Advanced Video Codec
Профиль формата : High@L3.2
Параметр CABAC формата : Да
Параметр ReFrames формата : 8 кадров
Режим смешивания : Header stripping
Идентификатор кодека : V_MPEG4/ISO/AVC
Продолжительность : 45 м.
Вид битрейта : Переменный
Битрейт : 1928 Кбит/сек
Максимальный битрейт : 40,0 Мбит/сек
Ширина : 720 пикселей
Высота : 480 пикселей
Соотношение сторон : 4:3
Режим частоты кадров : Постоянный
Частота кадров : 23,976 кадра/сек
Стандарт вещания : NTSC
Цветовое пространство : YUV
Субдискретизация насыщенности : 4:2:0
Битовая глубина : 8 бит
Тип развёртки : Прогрессивная
Бит/(Пиксели*Кадры) : 0.233
Размер потока : 623 Мбайт (84%)
Библиотека кодирования : x264 core 115 r1995 c1e60b9
Настройки программы : cabac=1 / ref=8 / deblock=1:-1:-1 / analyse=0x3:0x133 / me=umh / subme=9 / psy=1 / psy_rd=1.00:0.15 / mixed_ref=1 / me_range=16 / chroma_me=1 / trellis=2 / 8x8dct=1 / cqm=0 / deadzone=21,11 / fast_pskip=1 / chroma_qp_offset=-3 / threads=2 / sliced_threads=0 / nr=0 / decimate=1 / interlaced=0 / bluray_compat=0 / constrained_intra=0 / bframes=3 / b_pyramid=2 / b_adapt=2 / b_bias=0 / direct=3 / weightb=1 / open_gop=0 / weightp=2 / keyint=250 / keyint_min=23 / scenecut=40 / intra_refresh=0 / rc_lookahead=60 / rc=crf / mbtree=1 / crf=18.0 / qcomp=0.60 / qpmin=0 / qpmax=69 / qpstep=4 / ip_ratio=1.40 / aq=1:1.0
Default : Да
Forced : Нет

Аудио #1
Идентификатор : 2
Формат : AC-3
Формат/Информация : Audio Coding 3
Расширение режима : CM (complete main)
Параметр Endianness формата : Big
Режим смешивания : Header stripping
Идентификатор кодека : A_AC3
Продолжительность : 45 м.
Вид битрейта : Постоянный
Битрейт : 128 Кбит/сек
Каналы : 2 канала
Расположение каналов : Front: L R
Частота : 48,0 КГц
Битовая глубина : 16 бит
Метод сжатия : С потерями
Размер потока : 41,4 Мбайт (6%)
Язык : Russian
Default : Да
Forced : Нет

Аудио #2
Идентификатор : 3
Формат : AC-3
Формат/Информация : Audio Coding 3
Профиль формата : Dolby Digital
Расширение режима : CM (complete main)
Параметр Endianness формата : Big
Режим смешивания : Header stripping
Идентификатор кодека : A_AC3
Продолжительность : 45 м.
Вид битрейта : Постоянный
Битрейт : 192 Кбит/сек
Каналы : 2 канала
Расположение каналов : Front: L R
Частота : 48,0 КГц
Битовая глубина : 16 бит
Метод сжатия : С потерями
Задержка видео : 2 с. 200 мс.
Размер потока : 62,1 Мбайт (8%)
Язык : English
Default : Нет
Forced : Нет
Скриншоты:


3 сезон / 3 season (1995-1996)
Режиссер: Крис Картер/Chris Carter

Описание: 3 сезон сериала Секретные Материалы состоит из 24-х эпизодов. Благодаря помощи индейцев племени Наваха специальный агент Фокс Малдер возвращается к жизни. Теперь ему предстоит не только защитить Дану Скалли, но и все итоги их расследований фактов испытаний инфекций неизвестного происхождения, которые проводили на людях, а так же экспериментов с клонированием людей по инопланетным технологиям, которые были организованы тайным синдикатом внутри правительства.
3x01 - The Blessing Way (Благословенный путь)
3x02 - Paper Clip (Скрепка)
3x03 - D.P.O. (Д.П.О.)
3x04 - Clyde Bruckman’S Final Repose (Последний отдых Клайда Брукмана)
3x05 - The List (Список)
3x06 - 2Shy (Скромный)
3x07 - The Walk (Прогулка)
3x08- Oubliette (Темница
3x09 - Nisei (Нисэй)
3x10 - 731 (731)
3x11 - Revelations (Откровения)
3x12 - War Of The Coprophages (Война копрофагов)
3x13 - Syzygy (Парад планет)
3x14 - Grotesque (Гротеск)
3x15 - Piper Maru (Пайпер Мару)
3x16 - Apocrypha (Апокриф)
3x17 - Pusher (Толкач)
3x18 - Teso dos Bichos (Обитель духов)
3x19 - Hell Money (Адские деньги)
3x20 - Jose Chung’S 'From Outer Space («Из открытого космоса» Джо Чанга)
3x21 - Avatar (Воплощение)
3x22 - Quagmire (Трясина)
3x23 - Wetwired (Сырой монтаж)
3x24 - Talitha, Cumi (Девочка, встань)
Видео: H.264, 2597 Кбит/сек, 720x480 (640x480) , 23,976 кадра/сек
Аудио 1: Russian AC3, 2 канала, 128 Кбит/с, CBR - REN-TV
Аудио 2: English AC3, 2 канала, 192 Кбит/с, CBR - Оригинал
Сэмпл: Скачать
Общее
Уникальный идентификатор : 205683703818412038067039223125344231374 (0x9ABD3D8C88D1964581DC206D8C0B9FCE)
Формат : Matroska
Версия формата : Version 2
Размер файла : 955 Мбайт
Продолжительность : 44 м.
Режим общего битрейта : Переменный
Общий поток : 2977 Кбит/сек
Дата кодирования : UTC 2012-10-18 19:19:43
Программа кодирования : mkvmerge v5.8.0 ('No Sleep / Pillow') built on Sep 2 2012 15:37:04
Библиотека кодирования : libebml v1.2.3 + libmatroska v1.3.0

Видео
Идентификатор : 1
Формат : AVC
Формат/Информация : Advanced Video Codec
Профиль формата : High@L3.2
Параметр CABAC формата : Да
Параметр ReFrames формата : 8 кадров
Режим смешивания : Header stripping
Идентификатор кодека : V_MPEG4/ISO/AVC
Продолжительность : 44 м.
Вид битрейта : Переменный
Битрейт : 2597 Кбит/сек
Максимальный битрейт : 40,0 Мбит/сек
Ширина : 720 пикселей
Высота : 480 пикселей
Соотношение сторон : 4:3
Режим частоты кадров : Постоянный
Частота кадров : 23,976 кадра/сек
Стандарт вещания : NTSC
Цветовое пространство : YUV
Субдискретизация насыщенности : 4:2:0
Битовая глубина : 8 бит
Тип развёртки : Прогрессивная
Бит/(Пиксели*Кадры) : 0.313
Размер потока : 833 Мбайт (87%)
Библиотека кодирования : x264 core 115 r1995 c1e60b9
Настройки программы : cabac=1 / ref=8 / deblock=1:-1:-1 / analyse=0x3:0x133 / me=umh / subme=9 / psy=1 / psy_rd=1.00:0.15 / mixed_ref=1 / me_range=16 / chroma_me=1 / trellis=2 / 8x8dct=1 / cqm=0 / deadzone=21,11 / fast_pskip=1 / chroma_qp_offset=-3 / threads=2 / sliced_threads=0 / nr=0 / decimate=1 / interlaced=0 / bluray_compat=0 / constrained_intra=0 / bframes=3 / b_pyramid=2 / b_adapt=2 / b_bias=0 / direct=3 / weightb=1 / open_gop=0 / weightp=2 / keyint=250 / keyint_min=23 / scenecut=40 / intra_refresh=0 / rc_lookahead=60 / rc=crf / mbtree=1 / crf=18.0 / qcomp=0.60 / qpmin=0 / qpmax=69 / qpstep=4 / ip_ratio=1.40 / aq=1:1.0
Default : Да
Forced : Нет

Аудио #1
Идентификатор : 2
Формат : AC-3
Формат/Информация : Audio Coding 3
Расширение режима : CM (complete main)
Параметр Endianness формата : Big
Режим смешивания : Header stripping
Идентификатор кодека : A_AC3
Продолжительность : 44 м.
Вид битрейта : Постоянный
Битрейт : 128 Кбит/сек
Каналы : 2 канала
Расположение каналов : Front: L R
Частота : 48,0 КГц
Битовая глубина : 16 бит
Метод сжатия : С потерями
Размер потока : 41,0 Мбайт (4%)
Язык : Russian
Default : Да
Forced : Нет

Аудио #2
Идентификатор : 3
Формат : AC-3
Формат/Информация : Audio Coding 3
Профиль формата : Dolby Digital
Расширение режима : CM (complete main)
Параметр Endianness формата : Big
Режим смешивания : Header stripping
Идентификатор кодека : A_AC3
Продолжительность : 44 м.
Вид битрейта : Постоянный
Битрейт : 192 Кбит/сек
Каналы : 2 канала
Расположение каналов : Front: L R
Частота : 48,0 КГц
Битовая глубина : 16 бит
Метод сжатия : С потерями
Задержка видео : 2 с. 0 мс.
Размер потока : 61,6 Мбайт (6%)
Язык : English
Default : Нет
Forced : Нет
Скриншоты:


4 сезон / 4 season (1996-1997)
Режиссер: Крис Картер/Chris Carter

Описание: 4 сезон Секретных материалов состоит из 24 эпизодов. Спецагенты Фокс Малдер и Дана Скалли продолжают свое расследование фактов поведения испытаний инопланетного «черного масла» на людях, которые были организованы тайным синдикатом из правительства. В это время в организме Скалли начинает стремительно развиваться раковая опухоль, которая становится последствием тех экспериментов, которым она подверглась во время похищения. Стремясь доказать существование внеземной жизни Фокс Малдер практически доходит до самоубийства.
4x01 - Herrenvolk (Раса господ)
4x02 - Unruhe (Беспокойство)
4x03 - Home (Дом)
4x04 - Teliko (Телико)
4x05 - The Field Where I Died (Поле, где я умер)
4x06 - Sanguinarium (Кровожадный)
4x07 - Musings of a Cigarette Smoking Man (Мечты курильщика)
4x08 - Paper Hearts (Бумажные сердечки)
4x09 - Tunguska (Тунгуска)
4x10 - Terma (Терма)
4x11 - El Mundo gira (Мир вращается)
4x12 - Kaddish (Каддиш)
4x13 - Never Again (Больше никогда)
4x14 - Leonard Betts (Леонард Беттс)
4x15 - Memento Mori (Помни о смерти)
4x16 - Unrequited (Неотмщенный)
4x17 - Tempus Fugit (Время летит)
4x18 - Max (Макс)
4x19 - Synchrony (Синхронность)
4x20 - Small Potatoes (Мелочь пузатая)
4x21 - Zero Sum (Нулевой итог)
4x22 - Elegy (Элегия)
4x23 - Demons (Демоны)
4x24 - Gethsemane (Гефсиманский сад)
Видео: H.264, 2558 Кбит/сек, 720x480 (640x480), 23,976 кадра/сек
Аудио 1: Russian AC3, 2 канала, 128 Кбит/с, CBR - REN-TV
Аудио 2: English AC3, 2 канала, 192 Кбит/с, CBR - Оригинал
Сэмпл: Скачать
Общее
Уникальный идентификатор : 232163639276626410049075627135073499255 (0xAEA9172A3A03FD20980E4E15B1D3B877)
Формат : Matroska
Версия формата : Version 2
Размер файла : 930 Мбайт
Продолжительность : 44 м.
Режим общего битрейта : Переменный
Общий поток : 2936 Кбит/сек
Дата кодирования : UTC 2012-10-18 19:45:34
Программа кодирования : mkvmerge v5.8.0 ('No Sleep / Pillow') built on Sep 2 2012 15:37:04
Библиотека кодирования : libebml v1.2.3 + libmatroska v1.3.0

Видео
Идентификатор : 1
Формат : AVC
Формат/Информация : Advanced Video Codec
Профиль формата : High@L3.2
Параметр CABAC формата : Да
Параметр ReFrames формата : 8 кадров
Режим смешивания : Header stripping
Идентификатор кодека : V_MPEG4/ISO/AVC
Продолжительность : 44 м.
Вид битрейта : Переменный
Битрейт : 2558 Кбит/сек
Максимальный битрейт : 40,0 Мбит/сек
Ширина : 720 пикселей
Высота : 480 пикселей
Соотношение сторон : 4:3
Режим частоты кадров : Постоянный
Частота кадров : 23,976 кадра/сек
Стандарт вещания : NTSC
Цветовое пространство : YUV
Субдискретизация насыщенности : 4:2:0
Битовая глубина : 8 бит
Тип развёртки : Прогрессивная
Бит/(Пиксели*Кадры) : 0.309
Размер потока : 810 Мбайт (87%)
Библиотека кодирования : x264 core 115 r1995 c1e60b9
Настройки программы : cabac=1 / ref=8 / deblock=1:-1:-1 / analyse=0x3:0x133 / me=umh / subme=9 / psy=1 / psy_rd=1.00:0.15 / mixed_ref=1 / me_range=16 / chroma_me=1 / trellis=2 / 8x8dct=1 / cqm=0 / deadzone=21,11 / fast_pskip=1 / chroma_qp_offset=-3 / threads=2 / sliced_threads=0 / nr=0 / decimate=1 / interlaced=0 / bluray_compat=0 / constrained_intra=0 / bframes=3 / b_pyramid=2 / b_adapt=2 / b_bias=0 / direct=3 / weightb=1 / open_gop=0 / weightp=2 / keyint=250 / keyint_min=23 / scenecut=40 / intra_refresh=0 / rc_lookahead=60 / rc=crf / mbtree=1 / crf=18.0 / qcomp=0.60 / qpmin=0 / qpmax=69 / qpstep=4 / ip_ratio=1.40 / aq=1:1.0
Default : Да
Forced : Нет

Аудио #1
Идентификатор : 2
Формат : AC-3
Формат/Информация : Audio Coding 3
Расширение режима : CM (complete main)
Параметр Endianness формата : Big
Режим смешивания : Header stripping
Идентификатор кодека : A_AC3
Продолжительность : 44 м.
Вид битрейта : Постоянный
Битрейт : 128 Кбит/сек
Каналы : 2 канала
Расположение каналов : Front: L R
Частота : 48,0 КГц
Битовая глубина : 16 бит
Метод сжатия : С потерями
Размер потока : 40,5 Мбайт (4%)
Язык : Russian
Default : Да
Forced : Нет

Аудио #2
Идентификатор : 3
Формат : AC-3
Формат/Информация : Audio Coding 3
Профиль формата : Dolby Digital
Расширение режима : CM (complete main)
Параметр Endianness формата : Big
Режим смешивания : Header stripping
Идентификатор кодека : A_AC3
Продолжительность : 44 м.
Вид битрейта : Постоянный
Битрейт : 192 Кбит/сек
Каналы : 2 канала
Расположение каналов : Front: L R
Частота : 48,0 КГц
Битовая глубина : 16 бит
Метод сжатия : С потерями
Размер потока : 60,8 Мбайт (7%)
Язык : English
Default : Нет
Forced : Нет
Скриншоты:


5 сезон / 5 season (1997-1998)
Режиссер: Крис Картер/Chris Carter

Описание: В 5 сезоне 20 эпизодов. Cпецагенту Дане Скалли приходится укрывать от преследований спецслужб Фокса Малдера. В это время ей становится известно, что стало причиной появления и прогрессирования у нее раковой опухоли. Малдер старается найди для своей напарницы лекарство. Очередным последствием похищения Скалли становится появление девочки Эмили, которая согласно медицинским картам, не кто иная, как её дочь. В это время специальные агенты Малдер и Скалли оказываются на волосок от раскрытия деятельности тайного синдиката внутри правительства, который занят подготовкой нашей планеты к захвату инопланетянами.
5x01 - Redux (Возвращение)
5x02 - Redux II (Возвращение II)
5x03 - Unusual Suspects (Необычные подозреваемые)
5x04 - Detour (Окольный путь)
5x05 - Post-Modern Prometheus (Постмодернистский Прометей)
5x06 - Christmas Carol (Рождественский гимн)
5x07 - Emily (Эмили)
5x08 - Kitsunegari (Охота на лис)
5x09 - Schizogeny (Гены шизофреника)
5x10 - Chinga (Чинга)
5x11 - Kill Switch (Код для уничтожения)
5x12 - Bad Blood (Плохая кровь)
5x13 - Patient «X» (Пациент «Икс)
5x14 - The Red and the Black (Красное и чёрное)
5x15 - Travelers (Странники)
5x16 - Mind’S Eye (Око разума)
5x17 - All Souls (Все души)
5x18 - The Pine Bluff Variant (Вариант «Блеф)
5x19 - Folie a Deux (Обоюдное сумасшествие)
5x20 - The End (Конец)
Видео: H.264, 2558 Кбит/сек, 720x480 (853x480), 23,976 кадра/сек
Аудио 1: Russian AC3, 2 канала, 128 Кбит/с, CBR - REN-TV
Аудио 2: English AC3, 2 канала, 192 Кбит/с, CBR - Оригинал
Сэмпл: Скачать
Общее
Уникальный идентификатор : 232163639276626410049075627135073499255 (0xAEA9172A3A03FD20980E4E15B1D3B877)
Формат : Matroska
Версия формата : Version 2
Размер файла : 930 Мбайт
Продолжительность : 44 м.
Режим общего битрейта : Переменный
Общий поток : 2936 Кбит/сек
Дата кодирования : UTC 2012-10-18 19:45:34
Программа кодирования : mkvmerge v5.8.0 ('No Sleep / Pillow') built on Sep 2 2012 15:37:04
Библиотека кодирования : libebml v1.2.3 + libmatroska v1.3.0

Видео
Идентификатор : 1
Формат : AVC
Формат/Информация : Advanced Video Codec
Профиль формата : High@L3.2
Параметр CABAC формата : Да
Параметр ReFrames формата : 8 кадров
Режим смешивания : Header stripping
Идентификатор кодека : V_MPEG4/ISO/AVC
Продолжительность : 44 м.
Вид битрейта : Переменный
Битрейт : 2558 Кбит/сек
Максимальный битрейт : 40,0 Мбит/сек
Ширина : 720 пикселей
Высота : 480 пикселей
Соотношение сторон : 4:3
Режим частоты кадров : Постоянный
Частота кадров : 23,976 кадра/сек
Стандарт вещания : NTSC
Цветовое пространство : YUV
Субдискретизация насыщенности : 4:2:0
Битовая глубина : 8 бит
Тип развёртки : Прогрессивная
Бит/(Пиксели*Кадры) : 0.309
Размер потока : 810 Мбайт (87%)
Библиотека кодирования : x264 core 115 r1995 c1e60b9
Настройки программы : cabac=1 / ref=8 / deblock=1:-1:-1 / analyse=0x3:0x133 / me=umh / subme=9 / psy=1 / psy_rd=1.00:0.15 / mixed_ref=1 / me_range=16 / chroma_me=1 / trellis=2 / 8x8dct=1 / cqm=0 / deadzone=21,11 / fast_pskip=1 / chroma_qp_offset=-3 / threads=2 / sliced_threads=0 / nr=0 / decimate=1 / interlaced=0 / bluray_compat=0 / constrained_intra=0 / bframes=3 / b_pyramid=2 / b_adapt=2 / b_bias=0 / direct=3 / weightb=1 / open_gop=0 / weightp=2 / keyint=250 / keyint_min=23 / scenecut=40 / intra_refresh=0 / rc_lookahead=60 / rc=crf / mbtree=1 / crf=18.0 / qcomp=0.60 / qpmin=0 / qpmax=69 / qpstep=4 / ip_ratio=1.40 / aq=1:1.0
Default : Да
Forced : Нет

Аудио #1
Идентификатор : 2
Формат : AC-3
Формат/Информация : Audio Coding 3
Расширение режима : CM (complete main)
Параметр Endianness формата : Big
Режим смешивания : Header stripping
Идентификатор кодека : A_AC3
Продолжительность : 44 м.
Вид битрейта : Постоянный
Битрейт : 128 Кбит/сек
Каналы : 2 канала
Расположение каналов : Front: L R
Частота : 48,0 КГц
Битовая глубина : 16 бит
Метод сжатия : С потерями
Размер потока : 40,5 Мбайт (4%)
Язык : Russian
Default : Да
Forced : Нет

Аудио #2
Идентификатор : 3
Формат : AC-3
Формат/Информация : Audio Coding 3
Профиль формата : Dolby Digital
Расширение режима : CM (complete main)
Параметр Endianness формата : Big
Режим смешивания : Header stripping
Идентификатор кодека : A_AC3
Продолжительность : 44 м.
Вид битрейта : Постоянный
Битрейт : 192 Кбит/сек
Каналы : 2 канала
Расположение каналов : Front: L R
Частота : 48,0 КГц
Битовая глубина : 16 бит
Метод сжатия : С потерями
Размер потока : 60,8 Мбайт (7%)
Язык : English
Default : Нет
Forced : Нет
Скриншоты:


Секретные материалы: Борьба за будущее / The X-Files: Fight the Future
Страна: США
Студия: 20 век Фокс
Жанр: Фантастика, приключения
Год выпуска: 1998
Продолжительность: 02:02:41
Перевод: Дублированный
Язык субтитров: Русские, Английские
Вид субтитров: Вшитые, отключаемые



Режиссер: Роб Боумэн

В ролях: Дэвид Духовны, Джиллиан Андерсон, Митч Пилегги, Уильям Б. Дэвис, Том Брэйдвуд, Дин Хаглунд, Брюс Харвуд
Описание: «Секретные материалы: Борьба за будущее» (The X Files: Fight the Future) — первый полнометражный кинофильм, снятый на основе известного телевизионного сериала «Секретные материалы». По сюжетной линии находится точно между пятым и шестым сезонами сериала. Учитывая, что фильм изначально был рассчитан дабы угодить и поклонникам сериала и совершенно новым зрителям (не смотревшим сериал), просмотр данного кинофильма ни в коей мере не запутает новичков, не знакомых с мифологией сюжета сериала, а поклонникам даст ответы на многие вопросы, а также существенно расширит и обогатит общую мифологию.

описание: Даллас, штат Техас. Бомба террориста уничтожает здание. В ходе расследования спецагенты ФБР Фокс Малдер и Дана Скалли сталкиваются с тайным заговором, превосходящим по опасности все, что они до этого встречали. Рискуя собственной жизнью и карьерой, Малдер и Скалли делают все для уничтожения смертельного вируса, способного поразить все живое на Земле и, возможно, имеющего внеземное происхождение.

В этой погоне за правдой они выходят на таинственный синдикат, состоящий из могущественных людей, которые не остановятся ни перед чем ради сохранения своих секретов. Люди синдиката преследуют агентов в техасской пещере, штабе ФБР и на секретной базе в Антарктике, хранящей самый главный секрет…
Качество: BDRip
Видео: H.264, 1915 Кбит/сек, 1280x544 , 23,976 кадра/сек
Аудио 1: Russian AAC, 6 каналов, 48kHz, 340 Кбит/сек - Лицензия
Аудио 2: Russian AAC, 2 канала, 48kHz, 150 Кбит/сек - ОРТ
Аудио 3: English AAC, 6 каналов, 48kHz, 340 Кбит/сек - Оригинал
Общее
Уникальный идентификатор : 247039053138065399891027181821729243645 (0xB9D9FDB155C0E421925A0E06D1F101FD)
Формат : Matroska
Версия формата : Version 1
Размер файла : 2,18 Гбайт
Продолжительность : 2 ч. 2 м.
Общий поток : 2541 Кбит/сек
Кодирование произвёл : Woland
Дата кодирования : UTC 2009-04-13 11:07:54
Программа кодирования : mkvmerge v2.5.2 ('Stranger in your Soul') built on Feb 28 2009 18:58:17
Библиотека кодирования : x264+MeGUI+NeroAAC
TITLE : The X-files: Fight the future
DATE_RELEASED : 1998
Attachment : Yes

Видео
Идентификатор : 1
Формат : AVC
Формат/Информация : Advanced Video Codec
Профиль формата : High@L4.0
Параметр CABAC формата : Да
Параметр ReFrames формата : 8 кадров
Идентификатор кодека : V_MPEG4/ISO/AVC
Продолжительность : 2 ч. 2 м.
Номинальный битрейт : 1915 Кбит/сек
Ширина : 1280 пикселей
Высота : 544 пикселя
Соотношение сторон : 2,35:1
Режим частоты кадров : Постоянный
Частота кадров : 23,976 кадра/сек
Цветовое пространство : YUV
Субдискретизация насыщенности : 4:2:0
Битовая глубина : 8 бит
Тип развёртки : Прогрессивная
Бит/(Пиксели*Кадры) : 0.115
Заголовок : Секретные материалы: Борьба за будущее
Библиотека кодирования : x264 core 67 r1137M 1fda882
Настройки программы : cabac=1 / ref=8 / deblock=1:0:0 / analyse=0x3:0x113 / me=umh / subme=7 / psy_rd=1.1:0.0 / mixed_ref=1 / me_range=16 / chroma_me=1 / trellis=2 / 8x8dct=1 / cqm=0 / deadzone=21,11 / chroma_qp_offset=-2 / threads=3 / nr=0 / decimate=0 / mbaff=0 / bframes=3 / b_pyramid=1 / b_adapt=2 / b_bias=0 / direct=3 / wpredb=1 / keyint=250 / keyint_min=25 / scenecut=40 / rc=2pass / bitrate=1915 / ratetol=1.0 / qcomp=0.60 / qpmin=10 / qpmax=51 / qpstep=4 / cplxblur=20.0 / qblur=0.5 / ip_ratio=1.40 / pb_ratio=1.30 / aq=1:0.80
Default : Да
Forced : Нет

Аудио #1
Идентификатор : 2
Формат : AAC
Формат/Информация : Advanced Audio Codec
Профиль формата : LC
Идентификатор кодека : A_AAC
Продолжительность : 2 ч. 2 м.
Каналы : 6 каналов
Расположение каналов : Front: L C R, Side: L R, LFE
Частота : 48,0 КГц
Метод сжатия : С потерями
Заголовок : Русский [5.1]
Язык : Russian
Default : Да
Forced : Нет

Аудио #2
Идентификатор : 3
Формат : AAC
Формат/Информация : Advanced Audio Codec
Профиль формата : LC
Идентификатор кодека : A_AAC
Продолжительность : 2 ч. 2 м.
Каналы : 2 канала
Расположение каналов : Front: L R
Частота : 48,0 КГц
Метод сжатия : С потерями
Заголовок : Русский (ОРТ) [2.0]
Язык : Russian
Default : Нет
Forced : Нет

Аудио #3
Идентификатор : 4
Формат : AAC
Формат/Информация : Advanced Audio Codec
Профиль формата : LC
Идентификатор кодека : A_AAC
Продолжительность : 2 ч. 2 м.
Каналы : 6 каналов
Расположение каналов : Front: L C R, Side: L R, LFE
Частота : 48,0 КГц
Метод сжатия : С потерями
Заголовок : English [5.1]
Язык : English
Default : Нет
Forced : Нет

Текст #1
Идентификатор : 5
Формат : UTF-8
Идентификатор кодека : S_TEXT/UTF8
Идентификатор кодека/Информация : UTF-8 Plain Text
Заголовок : Русский
Язык : Russian
Default : Нет
Forced : Нет

Текст #2
Идентификатор : 6
Формат : UTF-8
Идентификатор кодека : S_TEXT/UTF8
Идентификатор кодека/Информация : UTF-8 Plain Text
Заголовок : English
Язык : English
Default : Нет
Forced : Нет
Скриншоты:
Финальная сцена фильма снималась в тех местах, где Лукас работал над «Звездными войнами» в эпизодах на Татуине.
Конрад Страгхолд (изображаемый Армином Мюллер-Шталем) был назван по имени реально существовавшего Губертуса Стругхолда, нацистского медицинского исследователя, который проводил эксперименты на заключенных концлагеря Дахау во время Второй мировой войны.
Так уж случилось, что сначала довелось познакомиться именно с этой лентой, снятой между пятым и шестым сезонами популярного мистического сериала «Секретные материалы», а уж потом удалось увидеть по нашему телевидению первые эпизоды данного цикла. Честно говоря, киновариант чуть было не отбил желание смотреть телевизионную версию. Он значительно уступает ей в сбалансированности таинственного и реального, непостижимого и вполне возможного, имеющего некое внеземное происхождение и в то же время находящегося где-то рядом. Несмотря на то, что создатели — сценарист и продюсер Крис Картер, режиссёр Роб Боумен — уверяли, что приложили немало усилий, желая заинтересовать не только одних лишь фанатов, коих на самом деле немало в разных странах мира, всё-таки получилось, что основные приколы и примочки в фильме будут лучше понятны тем, кто хотя бы приблизительно знает расстановку сил в сериале.

Кстати, любители телевизионного цикла «Секретные материалы» надеялись или же, наоборот, опасались (в зависимости от собственных пристрастий), что в картине, предназначенной для театрального проката, всё сразу прояснится и раскроется: от сути личных взаимоотношений многим полюбившихся двух спецагентов ФБР — Фокса Малдера и Дэны Скалли, до обнаружения основных участников некоего тайного заговора против человечества. Но надо признаться, что киновариант всё равно смотрится лишь как удлинённая, более оснащённая визуальными эффектами, искусственно раздутая по масштабам телесерия (на производство потратили симптоматичную по цифре сумму — $66 млн., лишь в мировом прокате сумев вернуть почти втрое больше). И эти кинематографические «Секретные материалы» (от подзаголовка «Борьба с будущим» на финальной стадии почему-то решили отказаться) не только оставляют большинство вопросов без ответов, но и вообще теряют логику, заставляя зрителей пребывать в полном недоумении.
6 сезон / 6 season (1998-1999)
Режиссер: Крис Картер/Chris Carter

Описание: Сериал Секретные Материалы 6 сезон состоит из 22-х эпизодов. Того, как в Далласе гремит взрыв принято решение вновь открыть проект Секретные Материалы. Но на этот раз без Фокса Малдера и Даны Скалли, которые не перестали расследовать загадочные дела. Несмотря на дикое давление со стороны своего начальства они оказываются в одном шаге от раскрытия всей деятельности тайного синдиката, который занят подготовкой планеты к колонизации из космоса. Но все оказывается под угрозой срыва, когда в дело неожиданно вмешиваются инопланетяне-повстанцы.
6x01 - The Beginning (Начало)
6x02 - Drive (Гонка)
6x03 - Triangle (Треугольник)
6x04 - Dreamland (Зазеркалье)
6x05 - Dreamland II (Зазеркалье II)
6x06 - How the Ghosts Stole Christmas (Как призраки похитили Рождество)
6x07 - Ghost (Язык нежности)
6x08 - Rain King (Король дождя)
6x09 - S.R. 819 (Резолюция Сената № 819)
6x10 - Tithonus (Титон)
6x11 - Two Fathers (Два отца)
6x12 - One Son (Один сын)
6x13 - Agua Mala (Плохая вода)
6x14 - Monday (Понедельник)
6x15 - Arcadia (Аркадия)
6x16 - Alpha (Альфа)
6x17 - Trevor (Тревор)
6x18 - Milagro (Чудо)
6x19 - Unnatural (Неестественный)
6x20 - Three of a Kind (Трое из вида)
6x21 - Field Trip (Полевой выезд)
6x22 - Biogenesis (Биогенез)
Видео: H.264, 1384 Кбит/сек, 720x480 (853x480), 23,976 кадра/сек
Аудио 1: Russian AC3, 2 канала, 128 Кбит/с, CBR - REN-TV
Аудио 2: English AC3, 2 канала, 192 Кбит/с, CBR - Оригинал
Сэмпл: Скачать
Общее
Уникальный идентификатор : 247032048428961003684340300814043324193 (0xB9D8A45579F129319A725297ADE41F21)
Формат : Matroska
Версия формата : Version 2
Размер файла : 565 Мбайт
Продолжительность : 45 м.
Режим общего битрейта : Переменный
Общий поток : 1738 Кбит/сек
Дата кодирования : UTC 2012-10-18 20:55:08
Программа кодирования : mkvmerge v5.8.0 ('No Sleep / Pillow') built on Sep 2 2012 15:37:04
Библиотека кодирования : libebml v1.2.3 + libmatroska v1.3.0

Видео
Идентификатор : 1
Формат : AVC
Формат/Информация : Advanced Video Codec
Профиль формата : High@L3.2
Параметр CABAC формата : Да
Параметр ReFrames формата : 8 кадров
Режим смешивания : Header stripping
Идентификатор кодека : V_MPEG4/ISO/AVC
Продолжительность : 45 м.
Вид битрейта : Переменный
Битрейт : 1384 Кбит/сек
Максимальный битрейт : 40,0 Мбит/сек
Ширина : 720 пикселей
Высота : 480 пикселей
Соотношение сторон : 16:9
Режим частоты кадров : Постоянный
Частота кадров : 23,976 кадра/сек
Стандарт вещания : NTSC
Цветовое пространство : YUV
Субдискретизация насыщенности : 4:2:0
Битовая глубина : 8 бит
Тип развёртки : Прогрессивная
Бит/(Пиксели*Кадры) : 0.167
Размер потока : 450 Мбайт (80%)
Библиотека кодирования : x264 core 115 r1995 c1e60b9
Настройки программы : cabac=1 / ref=8 / deblock=1:-1:-1 / analyse=0x3:0x133 / me=umh / subme=9 / psy=1 / psy_rd=1.00:0.15 / mixed_ref=1 / me_range=16 / chroma_me=1 / trellis=2 / 8x8dct=1 / cqm=0 / deadzone=21,11 / fast_pskip=1 / chroma_qp_offset=-3 / threads=2 / sliced_threads=0 / nr=0 / decimate=1 / interlaced=0 / bluray_compat=0 / constrained_intra=0 / bframes=3 / b_pyramid=2 / b_adapt=2 / b_bias=0 / direct=3 / weightb=1 / open_gop=0 / weightp=2 / keyint=250 / keyint_min=23 / scenecut=40 / intra_refresh=0 / rc_lookahead=60 / rc=crf / mbtree=1 / crf=18.0 / qcomp=0.60 / qpmin=0 / qpmax=69 / qpstep=4 / ip_ratio=1.40 / aq=1:1.0
Default : Да
Forced : Нет

Аудио #1
Идентификатор : 2
Формат : AC-3
Формат/Информация : Audio Coding 3
Расширение режима : CM (complete main)
Параметр Endianness формата : Big
Режим смешивания : Header stripping
Идентификатор кодека : A_AC3
Продолжительность : 45 м.
Вид битрейта : Постоянный
Битрейт : 128 Кбит/сек
Каналы : 2 канала
Расположение каналов : Front: L R
Частота : 48,0 КГц
Битовая глубина : 16 бит
Метод сжатия : С потерями
Размер потока : 41,6 Мбайт (7%)
Язык : Russian
Default : Да
Forced : Нет

Аудио #2
Идентификатор : 3
Формат : AC-3
Формат/Информация : Audio Coding 3
Профиль формата : Dolby Digital
Расширение режима : CM (complete main)
Параметр Endianness формата : Big
Режим смешивания : Header stripping
Идентификатор кодека : A_AC3
Продолжительность : 45 м.
Вид битрейта : Постоянный
Битрейт : 192 Кбит/сек
Каналы : 2 канала
Расположение каналов : Front: L R
Частота : 48,0 КГц
Битовая глубина : 16 бит
Метод сжатия : С потерями
Задержка видео : 2 с. 250 мс.
Размер потока : 62,4 Мбайт (11%)
Язык : English
Default : Нет
Forced : Нет
Скриншоты:


7 сезон / 7 season (1999-2000)
Режиссер: Крис Картер/Chris Carter

Описание: В 7 сезоне Секретных Материалов 22 эпизода. Спецагент Фокс Малдер впадает в кому, причиной которой является аномально возросшая мозговая активность. Дане Скалли приходится изо всех сил искать разгадку этого недуга. Саму Скалли, занятую поиском лекарства от рака, обманывает Курильщик, а Фокс Малдер неожиданно узнает, как на самом деле много лет назад пропала его сестра. Через семь лет после начала совместной работы агенты Малдер и Скалли возвращаются на место их первого расследования, где Малдера неожиданно похищают инопланетяне.
7x01 - The Sixth Extinction (Шестое вымирание)
7x02 - The Sixth Extinction II: Amor Fati (Шестое вымирание II: Любовь к судьбе)
7x03 - Hungry (Голодный)
7x04 - Millennium (Тысячелетие)
7x05 - Rush (Натиск)
7x06 - The Goldberg Variation (Вариация Голдберга)
7x07 - Orison (Орисон)
7x08 - The Amazing Maleeni (Удивительный Малини)
7x09 - Signs & Wonders (Знамения и чудеса)
7x10 - Sein Und Zeit (Бытие и время)
7x11 - Closure (Закрытие)
7x12 - X-Cops (Секретные копы)
7x13 - First Person Shooter (Стрелялка от первого лица)
7x14 - Theef (Вор)
7x15 - En Ami (По-дружески)
7x16 - Chimera (Химера)
7x17 - All Things (Все вещи)
7x18 - Brand X (Марка Икс)
7x19 - Hollywood AD (Голливуд, н. э.)
7x20 - Fight Club (Бойцовский клуб)
7x21 - Je Souhaite (Я хочу)
7x22 - Requiem (Реквием)
Видео: H.264, 2039 Кбит/сек, 720x480 (853x480), 23,976 кадра/сек
Аудио 1: Russian AC3, 2 канала, 128 Кбит/с, CBR - REN-TV
Аудио 2: English AC3, 2 канала, 192 Кбит/с, CBR - Оригинал
Сэмпл: Скачать
Общее
Уникальный идентификатор : 182367500989596109426588278631666772461 (0x8932B3FE9DE2FD8F9E42CB42E7FB69ED)
Формат : Matroska
Версия формата : Version 2
Размер файла : 767 Мбайт
Продолжительность : 44 м.
Режим общего битрейта : Переменный
Общий поток : 2406 Кбит/сек
Дата кодирования : UTC 2012-10-18 20:58:53
Программа кодирования : mkvmerge v5.8.0 ('No Sleep / Pillow') built on Sep 2 2012 15:37:04
Библиотека кодирования : libebml v1.2.3 + libmatroska v1.3.0

Видео
Идентификатор : 1
Формат : AVC
Формат/Информация : Advanced Video Codec
Профиль формата : High@L3.2
Параметр CABAC формата : Да
Параметр ReFrames формата : 8 кадров
Режим смешивания : Header stripping
Идентификатор кодека : V_MPEG4/ISO/AVC
Продолжительность : 44 м.
Вид битрейта : Переменный
Битрейт : 2039 Кбит/сек
Максимальный битрейт : 40,0 Мбит/сек
Ширина : 720 пикселей
Высота : 480 пикселей
Соотношение сторон : 16:9
Режим частоты кадров : Постоянный
Частота кадров : 23,976 кадра/сек
Стандарт вещания : NTSC
Цветовое пространство : YUV
Субдискретизация насыщенности : 4:2:0
Битовая глубина : 8 бит
Тип развёртки : Прогрессивная
Бит/(Пиксели*Кадры) : 0.246
Размер потока : 650 Мбайт (85%)
Библиотека кодирования : x264 core 115 r1995 c1e60b9
Настройки программы : cabac=1 / ref=8 / deblock=1:-1:-1 / analyse=0x3:0x133 / me=umh / subme=9 / psy=1 / psy_rd=1.00:0.15 / mixed_ref=1 / me_range=16 / chroma_me=1 / trellis=2 / 8x8dct=1 / cqm=0 / deadzone=21,11 / fast_pskip=1 / chroma_qp_offset=-3 / threads=2 / sliced_threads=0 / nr=0 / decimate=1 / interlaced=0 / bluray_compat=0 / constrained_intra=0 / bframes=3 / b_pyramid=2 / b_adapt=2 / b_bias=0 / direct=3 / weightb=1 / open_gop=0 / weightp=2 / keyint=250 / keyint_min=23 / scenecut=40 / intra_refresh=0 / rc_lookahead=60 / rc=crf / mbtree=1 / crf=18.0 / qcomp=0.60 / qpmin=0 / qpmax=69 / qpstep=4 / ip_ratio=1.40 / aq=1:1.0
Default : Да
Forced : Нет

Аудио #1
Идентификатор : 2
Формат : AC-3
Формат/Информация : Audio Coding 3
Расширение режима : CM (complete main)
Параметр Endianness формата : Big
Режим смешивания : Header stripping
Идентификатор кодека : A_AC3
Продолжительность : 44 м.
Вид битрейта : Постоянный
Битрейт : 128 Кбит/сек
Каналы : 2 канала
Расположение каналов : Front: L R
Частота : 48,0 КГц
Битовая глубина : 16 бит
Метод сжатия : С потерями
Размер потока : 40,8 Мбайт (5%)
Язык : Russian
Default : Да
Forced : Нет

Аудио #2
Идентификатор : 3
Формат : AC-3
Формат/Информация : Audio Coding 3
Профиль формата : Dolby Digital
Расширение режима : CM (complete main)
Параметр Endianness формата : Big
Режим смешивания : Header stripping
Идентификатор кодека : A_AC3
Продолжительность : 44 м.
Вид битрейта : Постоянный
Битрейт : 192 Кбит/сек
Каналы : 2 канала
Расположение каналов : Front: L R
Частота : 48,0 КГц
Битовая глубина : 16 бит
Метод сжатия : С потерями
Задержка видео : 2 с. 750 мс.
Размер потока : 61,2 Мбайт (8%)
Язык : English
Default : Нет
Forced : Нет
Скриншоты:


8 сезон / 8 season (2000-2001)
Режиссер: Крис Картер/Chris Carter

Описание: 8 сезон Секретных материалов состоит из 21 эпизода. Напарником Даны Скалли становится агент Джон Доггет, вместе с которым она расследует исчезновение Малдера, похищенного инопланетянами. Их поиски заканчиваются успехом, но жизнь и здоровье Малдера серьезно подорваны. После того как Скалли уходит в декретный отпуск, Малдеру и Доггету приходится работать в паре. После того как Скалли рожает мальчика, наделенного удивительными способностями, за ним начинают охотиться суперсолдаты – создания, появившиеся на свет в результате очередного проекты по скрещиванию людей и пришельцев.
8x01 - Within (Внутри)
8x02 - Without (Снаружи)
8x03 - Patience (Терпение)
8x04 - Roadrunners (Кукушата)
8x05 - Invocation (Заклинание)
8x06 - Redrum (Убийство)
8x07 - Via Negativa (Через отрицание)
8x08 - Surekill (Контрольный выстрел)
8x09 - Salvage (Спасение)
8x10 - Badlaa (Возмездие)
8x11 - The Gift (Дар)
8x12 - Medusa (Медуза)
8x13 - Per Manum (Вручную)
8x14 - This Is Not Happening (Этого не может быть)
8x15 - Deadalive (Живой мертвец)
8x16 - Three Words (Три слова)
8x17 - Empedocles (Эмпедокл)
8x18 - Vienen (Они идут)
8x19 - Alone (Одиночка)
8x20 - Essence (Сущность)
8x21 - Existence (Существование)
Видео: H.264, 2154 Кбит/сек, 720x480 (853x480), 23,976 кадра/сек
Аудио 1: Russian AC3, 2 канала, 128 Кбит/с, CBR - REN-TV
Аудио 2: English AC3, 2 канала, 192 Кбит/с, CBR - Оригинал
Сэмпл: Скачать
Общее
Уникальный идентификатор : 200339041798224059446293446740170897204 (0x96B7E55DD32D97AC9BC8DCE3A379F734)
Полное имя : F:\video_temp\Секретные материалы - The X-Files\XF8\804 - Roadrunners.mkv
Формат : Matroska
Версия формата : Version 2
Размер файла : 805 Мбайт
Продолжительность : 44 м.
Режим общего битрейта : Переменный
Общий поток : 2524 Кбит/сек
Дата кодирования : UTC 2012-05-19 23:02:48
Программа кодирования : mkvmerge v5.5.0 ('Healer') built on Apr 24 2012 23:47:03
Библиотека кодирования : libebml v1.2.3 + libmatroska v1.3.0

Видео
Идентификатор : 1
Формат : AVC
Формат/Информация : Advanced Video Codec
Профиль формата : High@L3.2
Параметр CABAC формата : Да
Параметр ReFrames формата : 8 кадров
Режим смешивания : Header stripping
Идентификатор кодека : V_MPEG4/ISO/AVC
Продолжительность : 44 м.
Вид битрейта : Переменный
Битрейт : 2154 Кбит/сек
Максимальный битрейт : 40,0 Мбит/сек
Ширина : 720 пикселей
Высота : 480 пикселей
Соотношение сторон : 16:9
Режим частоты кадров : Постоянный
Частота кадров : 23,976 кадра/сек
Стандарт вещания : NTSC
Цветовое пространство : YUV
Субдискретизация насыщенности : 4:2:0
Битовая глубина : 8 бит
Тип развёртки : Прогрессивная
Бит/(Пиксели*Кадры) : 0.260
Размер потока : 687 Мбайт (85%)
Библиотека кодирования : x264 core 115 r1995 c1e60b9
Настройки программы : cabac=1 / ref=8 / deblock=1:-1:-1 / analyse=0x3:0x133 / me=umh / subme=9 / psy=1 / psy_rd=1.00:0.15 / mixed_ref=1 / me_range=16 / chroma_me=1 / trellis=2 / 8x8dct=1 / cqm=0 / deadzone=21,11 / fast_pskip=1 / chroma_qp_offset=-3 / threads=2 / sliced_threads=0 / nr=0 / decimate=1 / interlaced=0 / bluray_compat=0 / constrained_intra=0 / bframes=3 / b_pyramid=2 / b_adapt=2 / b_bias=0 / direct=3 / weightb=1 / open_gop=0 / weightp=2 / keyint=250 / keyint_min=23 / scenecut=40 / intra_refresh=0 / rc_lookahead=60 / rc=crf / mbtree=1 / crf=18.0 / qcomp=0.60 / qpmin=0 / qpmax=69 / qpstep=4 / ip_ratio=1.40 / aq=1:1.0
Default : Да
Forced : Нет

Аудио #1
Идентификатор : 2
Формат : AC-3
Формат/Информация : Audio Coding 3
Расширение режима : CM (complete main)
Параметр Endianness формата : Big
Режим смешивания : Header stripping
Идентификатор кодека : A_AC3
Продолжительность : 44 м.
Вид битрейта : Постоянный
Битрейт : 128 Кбит/сек
Каналы : 2 канала
Расположение каналов : Front: L R
Частота : 48,0 КГц
Битовая глубина : 16 бит
Метод сжатия : С потерями
Размер потока : 40,8 Мбайт (5%)
Язык : Russian
Default : Да
Forced : Нет

Аудио #2
Идентификатор : 3
Формат : AC-3
Формат/Информация : Audio Coding 3
Профиль формата : Dolby Digital
Расширение режима : CM (complete main)
Параметр Endianness формата : Big
Режим смешивания : Header stripping
Идентификатор кодека : A_AC3
Продолжительность : 44 м.
Вид битрейта : Постоянный
Битрейт : 192 Кбит/сек
Каналы : 2 канала
Расположение каналов : Front: L R
Частота : 48,0 КГц
Битовая глубина : 16 бит
Метод сжатия : С потерями
Задержка видео : 2 с. 250 мс.
Размер потока : 61,2 Мбайт (8%)
Язык : English
Default : Нет
Forced : Нет
Скриншоты:


9 сезон / 9 season (2001-2002)
Режиссер: Крис Картер/Chris Carter

Описание: В девятом сезоне «Секретных материалов» 19 эпизодов. Для того чтобы обеспечить безопасность Дане Скалли и их сыну Уильяму, экс-спецагенту Фоксу Малдеру приходится их покинуть. В проекте «Секретные Материалы» тоже перемены – новой напарницей Джона Доггета становится Моника Рейс. Зрители увидят как за сыном Скалли и Малдера продолжают охотиться суперсолдаты – результат сверхсекретного проекта по скрещиванию пришельца и человека. Для того чтобы сохранить своему сыну жизнь Дане Скалли приходится отдать его в анонимную приемную семью. Спустя год из изгнания возвращается Малдер, который все так же хочет постичь Истину.
9x01 - Nothing Important Happened Today (Ничего особенного сегодня не случилось)
9x02 - Nothing Important Happened Today II (Ничего особенного сегодня не случилось II)
9x03 - Daemonicus (Сатана)
9x04 - Hellbound (Пленник Ада)
9x05 - 4-D (4-D)
9x06 - Lord of the Flies (Повелитель мух)
9x07 - John Doe (Джон Доу)
9x08 - Trust No One (Не верь никому)
9x09 - Underneath (Подноготная)
9x10 - Provenance (Происхождение)
9x11 - Providence (Провидение)
9x12 - Scary Monsters (Страшные монстры)
9x13 - Audrey Pauley (Одри Поли)
9x14 - Improbable (Невероятно)
9x15 - Jump The Shark (Прыжок через акулу)
9x16 - Release (Освобождение)
9x17 - William (Уильям)
9x18 - Sunshine Days (Солнечные деньки)
9x19 - The Truth (Истина)
Видео: H.264, 1738 Кбит/сек, 720x480 (853x480), 23,976 кадра/сек
Аудио 1: Russian AC3, 2 канала, 128 Кбит/с, CBR - REN-TV
Аудио 2: English AC3, 2 канала, 192 Кбит/с, CBR - Оригинал
Сэмпл: Скачать
Общее
Уникальный идентификатор : 210813907653711047974647944806454721436 (0x9E99482065EE1D298A8BC761C3A2FB9C)
Формат : Matroska
Версия формата : Version 2
Размер файла : 669 Мбайт
Продолжительность : 44 м.
Режим общего битрейта : Переменный
Общий поток : 2099 Кбит/сек
Дата кодирования : UTC 2012-05-20 20:09:21
Программа кодирования : mkvmerge v5.5.0 ('Healer') built on Apr 24 2012 23:47:03
Библиотека кодирования : libebml v1.2.3 + libmatroska v1.3.0

Видео
Идентификатор : 1
Формат : AVC
Формат/Информация : Advanced Video Codec
Профиль формата : High@L3.2
Параметр CABAC формата : Да
Параметр ReFrames формата : 8 кадров
Режим смешивания : Header stripping
Идентификатор кодека : V_MPEG4/ISO/AVC
Продолжительность : 44 м.
Вид битрейта : Переменный
Битрейт : 1738 Кбит/сек
Максимальный битрейт : 40,0 Мбит/сек
Ширина : 720 пикселей
Высота : 480 пикселей
Соотношение сторон : 16:9
Режим частоты кадров : Постоянный
Частота кадров : 23,976 кадра/сек
Стандарт вещания : NTSC
Цветовое пространство : YUV
Субдискретизация насыщенности : 4:2:0
Битовая глубина : 8 бит
Тип развёртки : Прогрессивная
Бит/(Пиксели*Кадры) : 0.210
Размер потока : 554 Мбайт (83%)
Библиотека кодирования : x264 core 115 r1995 c1e60b9
Настройки программы : cabac=1 / ref=8 / deblock=1:-1:-1 / analyse=0x3:0x133 / me=umh / subme=9 / psy=1 / psy_rd=1.00:0.15 / mixed_ref=1 / me_range=16 / chroma_me=1 / trellis=2 / 8x8dct=1 / cqm=0 / deadzone=21,11 / fast_pskip=1 / chroma_qp_offset=-3 / threads=2 / sliced_threads=0 / nr=0 / decimate=1 / interlaced=0 / bluray_compat=0 / constrained_intra=0 / bframes=3 / b_pyramid=2 / b_adapt=2 / b_bias=0 / direct=3 / weightb=1 / open_gop=0 / weightp=2 / keyint=250 / keyint_min=23 / scenecut=40 / intra_refresh=0 / rc_lookahead=60 / rc=crf / mbtree=1 / crf=18.0 / qcomp=0.60 / qpmin=0 / qpmax=69 / qpstep=4 / ip_ratio=1.40 / aq=1:1.0
Default : Да
Forced : Нет

Аудио #1
Идентификатор : 2
Формат : AC-3
Формат/Информация : Audio Coding 3
Расширение режима : CM (complete main)
Параметр Endianness формата : Big
Режим смешивания : Header stripping
Идентификатор кодека : A_AC3
Продолжительность : 44 м.
Вид битрейта : Постоянный
Битрейт : 128 Кбит/сек
Каналы : 2 канала
Расположение каналов : Front: L R
Частота : 48,0 КГц
Битовая глубина : 16 бит
Метод сжатия : С потерями
Размер потока : 40,8 Мбайт (6%)
Язык : Russian
Default : Да
Forced : Нет

Аудио #2
Идентификатор : 3
Формат : AC-3
Формат/Информация : Audio Coding 3
Профиль формата : Dolby Digital
Расширение режима : CM (complete main)
Параметр Endianness формата : Big
Режим смешивания : Header stripping
Идентификатор кодека : A_AC3
Продолжительность : 44 м.
Вид битрейта : Постоянный
Битрейт : 192 Кбит/сек
Каналы : 2 канала
Расположение каналов : Front: L R
Частота : 48,0 КГц
Битовая глубина : 16 бит
Метод сжатия : С потерями
Задержка видео : 250 мс.
Размер потока : 61,2 Мбайт (9%)
Язык : English
Default : Нет
Forced : Нет
Скриншоты:


Секретные материалы: Хочу верить / The X-Files: Want to believe
Страна: США
Студия: 20 век Фокс
Жанр: Фантастика, приключения
Год выпуска: 2008
Продолжительность: 01:48:08
Перевод: Дублированный
Язык субтитров: Русские, Русские (комментарии), Украинские, Английские, Английские (комментарии)
Вид субтитров: Вшитые, отключаемые



Режиссер:Крис Картер

В ролях: Дэвид Духовны, Джилиан Андерсон, Аманда Пит, Билли Коннолли, Игзибит, Каллум Кейт Ренни
Описание: «Секретные материалы: Борьба за будущее» (The X Files: Fight the Future) — первый полнометражный кинофильм, снятый на основе известного телевизионного сериала «Секретные материалы». По сюжетной линии находится точно между пятым и шестым сезонами сериала. Учитывая, что фильм изначально был рассчитан дабы угодить и поклонникам сериала и совершенно новым зрителям (не смотревшим сериал), просмотр данного кинофильма ни в коей мере не запутает новичков, не знакомых с мифологией сюжета сериала, а поклонникам даст ответы на многие вопросы, а также существенно расширит и обогатит общую мифологию.

описание: Пропадает без вести сотрудница ФБР, и последней надеждой её коллег становятся Фокс Малдер и Дана Скалли, бывшие специальные агенты, вынужденно, хотя и по разным причинам, оставившие службу. Единственным человеком, дающим следствию хоть какую-то информацию, является престарелый Джозеф Криссман, в прошлом священник, отбывший наказание за совращение несовершеннолетних, который уверяет, что картины совершённых преступлений непроизвольно - «по воле Бога» - возникают в его сознании...

Качество: BDRip
Видео: H.264, 2319 Кбит/сек, 1280x528 , 23,976 кадра/сек
Аудио 1: Russian AAC, 320 Кбит/сек, 6 каналов, 48 КГц - Дубляж
Аудио 2: English AAC, 320 Кбит/сек, 6 каналов, 48 КГц - Оригинал
Общее
Формат : MPEG-4
Профиль формата : Base Media
Идентификатор кодека : isom
Размер файла : 2,18 Гбайт
Продолжительность : 1 ч. 48 м.
Режим общего битрейта : Переменный
Общий поток : 2885 Кбит/сек
Название фильма : Секретные материалы: Хочу верить [Реж.версия] / The X-Files: I Want to Believe [Dir.Cut]
Жанр : Mysterious
Дата записи : 2008
Дата кодирования : UTC 2009-09-22 16:59:37
Дата пометки : UTC 2009-09-22 16:59:37
Программа кодирования : Yamb 2.1.0.0 [http://yamb.unite-video.com]
Обложка : Yes

Видео
Идентификатор : 1
Формат : AVC
Формат/Информация : Advanced Video Codec
Профиль формата : High@L4.0
Параметр CABAC формата : Да
Параметр ReFrames формата : 8 кадров
Идентификатор кодека : avc1
Идентификатор кодека/Информация : Advanced Video Coding
Продолжительность : 1 ч. 48 м.
Битрейт : 2319 Кбит/сек
Максимальный битрейт : 10,2 Мбит/сек
Ширина : 1280 пикселей
Высота : 528 пикселей
Соотношение сторон : 2,40:1
Режим частоты кадров : Постоянный
Частота кадров : 23,976 кадра/сек
Цветовое пространство : YUV
Субдискретизация насыщенности : 4:2:0
Битовая глубина : 8 бит
Тип развёртки : Прогрессивная
Бит/(Пиксели*Кадры) : 0.143
Размер потока : 1,75 Гбайт (80%)
Заголовок : The X-Files
Библиотека кодирования : x264 core 75 r1259M dd026f2
Настройки программы : cabac=1 / ref=8 / deblock=1:-1:-1 / analyse=0x3:0x113 / me=umh / subme=7 / psy=1 / psy_rd=1.1:0.3 / mixed_ref=1 / me_range=16 / chroma_me=1 / trellis=2 / 8x8dct=1 / cqm=0 / deadzone=21,11 / chroma_qp_offset=-4 / threads=3 / nr=0 / decimate=0 / mbaff=0 / bframes=5 / b_pyramid=1 / b_adapt=2 / b_bias=0 / direct=3 / wpredb=1 / keyint=250 / keyint_min=25 / scenecut=40 / rc=2pass / mbtree=0 / bitrate=2319 / ratetol=1.0 / qcomp=0.80 / qpmin=10 / qpmax=51 / qpstep=4 / cplxblur=20.0 / qblur=0.5 / ip_ratio=1.40 / pb_ratio=1.30 / aq=1:0.90 / pulldown=0 / nal_hrd=0
Дата кодирования : UTC 2009-09-22 16:59:37
Дата пометки : UTC 2009-09-22 17:06:49
Коэффициенты матрицы : BT.709

Аудио #1
Идентификатор : 2
Формат : AAC
Формат/Информация : Advanced Audio Codec
Профиль формата : LC
Идентификатор кодека : 40
Продолжительность : 1 ч. 48 м.
Вид битрейта : Переменный
Битрейт : 277 Кбит/сек
Максимальный битрейт : 350 Кбит/сек
Каналы : 6 каналов
Расположение каналов : Front: L C R, Side: L R, LFE
Частота : 48,0 КГц
Метод сжатия : С потерями
Размер потока : 214 Мбайт (10%)
Заголовок : Russian [5.1]
Язык : Russian
Дата кодирования : UTC 2009-09-22 17:05:42
Дата пометки : UTC 2009-09-22 17:06:49

Аудио #2
Идентификатор : 3
Формат : AAC
Формат/Информация : Advanced Audio Codec
Профиль формата : LC
Идентификатор кодека : 40
Продолжительность : 1 ч. 48 м.
Вид битрейта : Переменный
Битрейт : 282 Кбит/сек
Максимальный битрейт : 353 Кбит/сек
Каналы : 6 каналов
Расположение каналов : Front: L C R, Side: L R, LFE
Частота : 48,0 КГц
Метод сжатия : С потерями
Размер потока : 218 Мбайт (10%)
Заголовок : English [5.1]
Язык : English
Дата кодирования : UTC 2009-09-22 17:06:30
Дата пометки : UTC 2009-09-22 17:06:49

Текст #1
Идентификатор : 4
Формат : Timed text
Идентификатор кодека : tx3g
Продолжительность : 1 ч. 42 м.
Вид битрейта : Переменный
Битрейт : 63 бит/сек
Размер потока : 47,2 Кбайт (0%)
Заголовок : Russian
Язык : Russian
Дата кодирования : UTC 2009-09-22 17:06:48
Дата пометки : UTC 2009-09-22 17:06:49

Текст #2
Идентификатор : 5
Формат : Timed text
Идентификатор кодека : tx3g
Продолжительность : 1 ч. 48 м.
Вид битрейта : Переменный
Битрейт : 146 бит/сек
Размер потока : 115 Кбайт (0%)
Заголовок : Russian (comments)
Язык : Russian
Дата кодирования : UTC 2009-09-22 17:06:48
Дата пометки : UTC 2009-09-22 17:06:49

Текст #3
Идентификатор : 6
Формат : Timed text
Идентификатор кодека : tx3g
Продолжительность : 1 ч. 48 м.
Вид битрейта : Переменный
Битрейт : 63 бит/сек
Размер потока : 49,5 Кбайт (0%)
Заголовок : Ukrainian
Язык : Ukrainian
Дата кодирования : UTC 2009-09-22 17:06:48
Дата пометки : UTC 2009-09-22 17:06:49

Текст #4
Идентификатор : 7
Формат : Timed text
Идентификатор кодека : tx3g
Продолжительность : 1 ч. 47 м.
Вид битрейта : Переменный
Битрейт : 50 бит/сек
Размер потока : 39,3 Кбайт (0%)
Заголовок : English
Язык : English
Дата кодирования : UTC 2009-09-22 17:06:49
Дата пометки : UTC 2009-09-22 17:06:49

Текст #5
Идентификатор : 8
Формат : Timed text
Идентификатор кодека : tx3g
Продолжительность : 1 ч. 48 м.
Вид битрейта : Переменный
Битрейт : 121 бит/сек
Размер потока : 95,4 Кбайт (0%)
Заголовок : English (comments)
Язык : English
Дата кодирования : UTC 2009-09-22 17:06:49
Дата пометки : UTC 2009-09-22 17:06:49

Меню
00:00:00.000 : Chapter 1
00:02:47.417 : Chapter 2
00:04:28.768 : Chapter 3
00:05:16.733 : Chapter 4
00:06:34.603 : Chapter 5
00:11:25.476 : Chapter 6
00:14:43.466 : Chapter 7
00:20:13.754 : Chapter 8
00:22:43.487 : Chapter 9
00:25:29.445 : Chapter 10
00:27:33.944 : Chapter 11
00:27:46.790 : Chapter 12
00:28:09.521 : Chapter 13
00:30:35.834 : Chapter 14
00:34:27.899 : Chapter 15
00:36:22.680 : Chapter 16
00:40:16.748 : Chapter 17
00:42:13.156 : Chapter 18
00:46:45.886 : Chapter 19
00:49:03.148 : Chapter 20
00:49:25.296 : Chapter 21
00:49:46.150 : Chapter 22
00:52:17.926 : Chapter 23
00:57:57.349 : Chapter 24
00:59:29.608 : Chapter 25
01:02:44.594 : Chapter 26
01:07:08.566 : Chapter 27
01:08:41.325 : Chapter 28
01:10:43.948 : Chapter 29
01:12:16.457 : Chapter 30
01:15:13.843 : Chapter 31
01:17:18.258 : Chapter 32
01:19:22.341 : Chapter 33
01:20:39.501 : Chapter 34
01:22:30.696 : Chapter 35
01:24:19.846 : Chapter 36
01:27:13.562 : Chapter 37
01:30:11.114 : Chapter 38
01:35:30.391 : Chapter 39
01:36:09.430 : Chapter 40
01:38:22.605 : Chapter 41
01:41:05.351 : Chapter 42
01:42:22.178 : Chapter 43
01:48:02.351 : Chapter 44
Скриншоты:
Долгое время работа над фильмом велась под рабочим названием «Секретные материалы: Первый готов»
В записной книжке в телефоне Малдера записаны следующие контакты: Gilligan — это фамилия одного из создателей сериала, Bowman — это один из режисёров, Shiban — один из сценаристов.
В одной из сцен в фильме, когда агент Скалли идёт по коридору больницы можно увидеть создалеля/режисёр/автора сценария и продюсера Криса Картера.
Женщина агент которая привлекла внимание Малдера пройдя в двух шагах от него в офисе ФБР — это Ванесса Морли. В сериале она исполняла роль восьмилетней Саманты Малдер и это ее фотография висит на двери в доме Малдера в начале фильма.
Из-за засекреченности сюжета фильма его режиссёром был некий Рич Трейсерс (Rich Tracers) — это анаграмма от «Chris Carter». А героев Дэвида Духовны и Джиллиан Андерсон в сценарии звали Ларри и Френки, в честь любимых собак Криса Картера.
Спасибо, Крис. Спасибо, что ты снял этот фильм и втройне спасибо за то, что сделал его таким. Не голливудским блокбастером, где концентрация крови и зрелищ на погонный метр пленки превышает все мыслимые пределы. Не экшном, который можно смотреть, вжавшись в кресло, икая и заедая особо страшные моменты попкорном. А фильмом о простых людях и простых чувствах, фильмом о вере и надежде, фильмом о страхе, лжи, лицемерии и искуплении.

Настоящий он, этот фильм. И очень-очень честный. Я не удивлена абсолютно, что публика наша разочарована. Еще бы! Ждали очередной мясорубки, нашпигованный монстрами, овеянный шлейфом из летающих тарелочек, приправленный красивыми формами девушек типа Дакоты Уитни, а получили грустный и сложный фильм, который надо не смотреть, а чувствовать. Над которым нужно — о, какая это роскошь в наше время — думать.

Ведь на самом деле история о пересаживании женских тел — это лишь одна из незначительных составляющих этого тонкого и глубокого фильма. Паранормальное в нем отходит на второй, если не третий план. А на авансцене — наша с вами жизнь, наши реалии. Темные, мрачные, лишь изредка озаряемые лучиком света.

Священник, который прикрываясь лицемерным состраданием к мальчику, не хочет тратить бюджетные деньги на его лечение — умер и ладно. Врачи-транслантаторы, болтающие о своих любовных похождениях и кромсающие беззащитные тела людей, которым не повезло лишь в одном — иметь редкую группу крови. Агент Драми, довольный собой, своей карьерой и своей жизнью, с радостью использующий помощь Малдера и откровенно посылающий Скалли, когда ей нужна помощь. Циник и мерзавец, ради продления иллюзорной жизни своего любовника убивающий людей. Таких же людей, как мы с вами. Неужели знание того, что рядом по соседней улице может ходить вот такое чудовище — оно не страшнее чудовищ выдуманных?!

Но и свет в фильме есть. Это прежде всего чистые, искренние и очень душевные отношения Малдера и Скалли. Союз двух любящих друг друга, готовых без колебаний принести в жертву ради другого все, что у него есть.

Спасибо, Крис. Спасибо, что ты снял этот фильм и втройне спасибо за то, что сделал его таким. А попкорн, кровь и зрелища пусть останется для публики, алчущей их.

10 из 10
1. Открыть торрент.
2. Снять галки с тех файлов торрента, которые мы не хотим закачивать. Оставляем только на нужных нам файлах (файле).
3. Нажать О.К.
Все раздачи сериала

Время раздачи: 24/7
[NNM-Club.ru]_Sekretnyie materialyi - The X-Files.torrent
 Торрент: Платиновая раздача  Зарегистрирован
 
Скачать


 Зарегистрирован:   21 Окт 2012 10:13:47
 Размер:   154 GB  (
 Рейтинг:   4,9 (Голосов: 492)
 Поблагодарили:   1346
 Проверка:   Оформление проверено модератором 21 Окт 2012 12:21:03
Как cкачать  ·  Как раздать  ·  Правильно оформить  ·  Поднять ратио!  
fluorescent
Стаж: 9 лет 6 мес.
Сообщений: 53
Ratio: 417,27
Поблагодарили: 831
100%
russia.gif
Может кому пригодится информация по медиаплеерам:
IconBIT HDS5L (Realtek 1073): не воспроизводятся - звук есть, картинки - нет (определяет размер кадра как 0x0)
WD TV live (Sigma Designs SMP8655): все идет без проблем
WD TV live streaming (Sigma Designs SMP8670): все идет без проблем, можно выставить задержку / опережение для серий с рассинхроном
taysky
Стаж: 9 лет 5 мес.
Сообщений: 3
Ratio: 28,942
100%
russia.gif
fluorescent писал(а): Перейти к сообщению
выставить задержку / опережение для серий с рассинхроном

А все ж какие именно серии с рассинхроном ?
nanotuz
Стаж: 6 лет 10 мес.
Сообщений: 5
Ratio: 7,96
100%
australia.gif
у меня что то не качаются 5.6.7.8.9 сезоны,уже пошло
andyie
Стаж: 8 лет 7 мес.
Сообщений: 82
Ratio: 2,951
0%
latvia.gif
7-й сезон - 9-я серия с рассинхроном.
OtimJ_90
Стаж: 10 лет 2 мес.
Сообщений: 30
Ratio: 1,569
100%
russia.gif
maxedo писал(а): Перейти к сообщению
Можно отдельно перевод ОРТ? Помогите найти.

есть такая прога - MKVToolNix в ней можно лишние дорожки стереть. Я сейчас качаю раздачу этого сериала (500Гб) и постепенно конвертирую серии с удалением всех сабов и дорожек, кроме ОРТ.
Sprut9276
Стаж: 7 лет 3 мес.
Сообщений: 27
Ratio: 8,818
100%
ukraine.gif
Спасибо. :респект:
bonewurov1
Стаж: 6 лет 7 мес.
Сообщений: 9
Ratio: 122,859
100%
russia.gif
Огромное спасибо!
Klinsky
Стаж: 9 лет 8 мес.
Сообщений: 520
Ratio: 6,038
Поблагодарили: 3
100%
Откуда: ГУВД Гондураса
ussr.gif
:поклоняется: :поклоняется: :поклоняется: :поклоняется: :респект:

_________________
У санитаров я на хорошем счету и поэтому мне разрешают съедать таблетки соседей.
[Death_Gamer]
Стаж: 10 лет 1 мес.
Сообщений: 461
Ratio: 22,896
100%
вот это наш размер, спасибо )
nicolson
Стаж: 12 лет 3 мес.
Сообщений: 78
Ratio: 45,356
Раздал: 5,411 TB
Поблагодарили: 42
100%
russia.gif
Благодарю!
Рустам2012
Стаж: 7 лет 2 мес.
Сообщений: 2
Ratio: 5,769
100%
Большое спасибо!!
Алексей Борисович Струков
Стаж: 8 лет 1 мес.
Сообщений: 485
Ratio: 1,729
Поблагодарили: 1
24.29%
Откуда: Челябинск РСФСР,СССР,РФ
russia.gif
По телеку смотрел в анонсе там неодин малдер а целых два так что хотелось уточнить это какой сезон то новый или старый!!!!!!????
ass-ass-in
Стаж: 7 лет 1 мес.
Сообщений: 21
Ratio: 2,568
100%
Классный сериал! Качаю
qwwertylo​adrunner​

Online
Стаж: 5 лет 7 мес.
Сообщений: 525
Ratio: 10,244
100%
Откуда: бы ни был
ussr.gif
Подскажите, пожалуйста, в сериях нет субтитров?
Алексей Борисович Струков
Стаж: 8 лет 1 мес.
Сообщений: 485
Ratio: 1,729
Поблагодарили: 1
24.29%
Откуда: Челябинск РСФСР,СССР,РФ
russia.gif
Всё очень просто скачиваете смотрите сериальчик смотрите какой заранее сезон если не хватает серий по сезонам то не все серии выложили или они есть и ещё не озвучены, так часто бывает выйдет фильм сериал киноэпопея к примеру а озвучка то идёт годами поздними также как и реставрация и презапись звука и всё остальное одним словом сизифоф труд который кстати делает наша современная молодёжь или ещё вот что появился сериал как этот секретные матириалы с главными героями фокс малдером и агентом скалли мы что где-то будем узнавать сколько всего серий и сезонов вместе взятые это называеться просто ограничение в информационном пространнстве виртуальном тем более существует ФЗ "Об Информации и информатизации РФ и за её пределами" честно надо сказать что лично я сижу смотрю новый сериал и не знаю сколько серий и сезонов ведь заранее ни где об этом не говориться ни в печати не в сми, ни в интрнете и по ТВ сколько серий отведенно столько смотрит телезритель, ну и ни кто в своё время не мог предположить что сериал санта-барабара расстяниться на 900 сезонов и не понятно чем тогда вся эта трехамутия закончилась, а народ смотрел многие повымерали покаления на этом и считаю что мараторий и запрет на такие сериалы есть и саги тоже!!!!
P.S. По моему это знает каждый.!!!!!
Показать сообщения:   
Начать новую тему   Ответить на тему    Торрент-трекер NNM-Club -> Зарубежные сериалы -> Секретные материалы / X-Files Часовой пояс: GMT + 3
Страницы:   Пред.  1, 2, 3  След.
Страница 2 из 3