Классический форум-трекер
canvas not supported
Нас вместе: 4 102 689

Дневники Вампира / The Vampire Diaries (2012) WEB-DL [1080p] (сезон 4, серии 1-23 из 23) [LostFilm, Кубик в Кубе]


Страницы:   Пред.  1, 2 
 
RSS
Начать новую тему   Ответить на тему    Торрент-трекер NNM-Club -> Зарубежные сериалы -> Дневники вампира / Vampire Diaries ; Настоящая кровь / True Blood; Древние / Originals
Автор Сообщение
Oops_Smile ®
Стаж: 10 лет
Сообщений: 1543
Ratio: 52,661
Раздал: 56,63 TB
Поблагодарили: 46690
100%
Откуда: Симферополь

[bДневники Вампира / The Vampire Diaries (2012) WEB-DL [1080p] (сезон 4, серии 1-23 из 23) [LostFilm, Кубик в Кубе]][/b]
Год выпуска: 2012, 4 Сезон
Жанр: Мелодрама, Ужасы, Драма

Описание фильма:
Прошло всего четыре месяца после трагической аварии, в которой погибли их родители, и 17-летняя Елена Гилберт и ее 15-летний брат Джереми все еще пытаются оправиться от потери и вернуться к нормальной жизни. Елена всегда была отличной ученицей, красивой и популярной девушкой в школе, но теперь ей очень тяжело скрывать свою печаль от внешнего мира. В начале учебного года внимание Елены и ее друзей привлекает новый ученик, загадочный и красивый Стефан Сальваторе.

Стефан и Елена тут же чувствуют взаимную симпатию, но Елена даже не подозревает, что Стефан — вампир, которому уже сотни лет, и который старается мирно жить среди людей, несмотря на то, что его брат, Дэймон — воплощение вампирской жестокости и кровожадности. Теперь два брата-вампира — один добрый, другой злой — ведут борьбу за души Елены, ее друзей и других жителей городка Мистик Фоллз. .

Режиссер: Маркос Сига, Роб Харди, Дэвид Фон Энкен
Актеры: Нина Добрев, Пол Уэсли, Иен Сомерхолдер, Стивен Р. МакКуин, Катерина Грэхэм, Кэндис Аккола, Зак Рериг, Майкл Тревино, Мэттью Дэвис, Сара Каннинг

Продолжительность: ~ 00:42 :00 минуты (серия)
Перевод: Двуголосый закадровый, профессиональный


Источник: iTunes WEB-DL
Качество видео: WEB-DL
Видеокодек: MPEG-4 AVC/H.264
Аудиокодек: AC-3
Bидео: 1920x1080 at 23.976 fps, ~4702 kb/s
Аудио# 1: Русский: AC3, 3/2 ch, ~ 384 kb/s |Многоголосый закадровый, LostFilm|
Аудио# 2: Русский: AC3, 3/2 ch, ~ 384 kb/s |Многоголосый закадровый, Кубик в Кубе|
Аудио# 3: Английский: AC3, 3/2 ch, ~ 384 kb/s
Субтитры: Русские, Английские
Скриншоты:




Формат : Matroska
Версия формата : Version 2
Размер файла : 1,77 Гбайт
Продолжительность : 42 м.
Общий поток : 5973 Кбит/сек
Название фильма : The Vampire Diaries [Season 4] (2012)
Дата кодирования : UTC 2012-10-13 16:43:06
Программа кодирования : mkvmerge v5.8.0 ('No Sleep / Pillow') built on Sep 2 2012 15:37:04
Библиотека кодирования : libebml v1.2.3 + libmatroska v1.3.0

Видео
Идентификатор : 1
Формат : AVC
Формат/Информация : Advanced Video Codec
Профиль формата : High@L4.0
Параметр CABAC формата : Да
Параметр ReFrames формата : 4 кадра
Идентификатор кодека : V_MPEG4/ISO/AVC
Продолжительность : 42 м.
Битрейт : 4702 Кбит/сек
Ширина : 1920 пикселей
Высота : 1080 пикселей
Соотношение сторон : 16:9
Частота кадров : 23,976 кадра/сек
Цветовое пространство : YUV
Субдискретизация насыщенности : 4:2:0
Битовая глубина : 8 бит
Тип развёртки : Прогрессивная
Бит/(Пиксели*Кадры) : 0.095
Размер потока : 1,40 Гбайт (79%)
Заголовок : The Vampire Diaries
Язык : English
Default : Да
Forced : Нет
Основные цвета : BT.709-5, BT.1361, IEC 61966-2-4, SMPTE RP177
Характеристики трансфера : BT.709-5, BT.1361
Коэффициенты матрицы : BT.709-5, BT.1361, IEC 61966-2-4 709, SMPTE RP177

Аудио #1
Идентификатор : 2
Формат : AC-3
Формат/Информация : Audio Coding 3
Расширение режима : CM (complete main)
Параметр Endianness формата : Big
Идентификатор кодека : A_AC3
Продолжительность : 42 м.
Вид битрейта : Постоянный
Битрейт : 384 Кбит/сек
Каналы : 6 каналов
Расположение каналов : Front: L C R, Side: L R, LFE
Частота : 48,0 КГц
Битовая глубина : 16 бит
Метод сжатия : С потерями
Размер потока : 117 Мбайт (6%)
Заголовок : LostFilm
Язык : Russian
Default : Да
Forced : Нет

Аудио #2
Идентификатор : 3
Формат : AC-3
Формат/Информация : Audio Coding 3
Расширение режима : CM (complete main)
Параметр Endianness формата : Big
Идентификатор кодека : A_AC3
Продолжительность : 42 м.
Вид битрейта : Постоянный
Битрейт : 384 Кбит/сек
Каналы : 6 каналов
Расположение каналов : Front: L C R, Side: L R, LFE
Частота : 48,0 КГц
Битовая глубина : 16 бит
Метод сжатия : С потерями
Размер потока : 117 Мбайт (6%)
Заголовок : Кубик в Кубе
Язык : Russian
Default : Нет
Forced : Нет

Аудио #3
Идентификатор : 4
Формат : AC-3
Формат/Информация : Audio Coding 3
Расширение режима : CM (complete main)
Параметр Endianness формата : Big
Идентификатор кодека : A_AC3
Продолжительность : 42 м.
Вид битрейта : Постоянный
Битрейт : 384 Кбит/сек
Каналы : 6 каналов
Расположение каналов : Front: L C R, Side: L R, LFE
Частота : 48,0 КГц
Битовая глубина : 16 бит
Метод сжатия : С потерями
Размер потока : 117 Мбайт (6%)
Язык : English
Default : Нет
Forced : Нет

Текст #1
Идентификатор : 5
Формат : UTF-8
Идентификатор кодека : S_TEXT/UTF8
Идентификатор кодека/Информация : UTF-8 Plain Text
Язык : Russian
Default : Нет
Forced : Нет

Текст #2
Идентификатор : 6
Формат : UTF-8
Идентификатор кодека : S_TEXT/UTF8
Идентификатор кодека/Информация : UTF-8 Plain Text
Язык : English
Default : Нет
Forced : Нет
• Съемки «Дневников вампира» проходили параллельно съемкам новой серии саги «Сумерки» — «Новолуние», причем актеры обоих проектов жили в одном отеле.

• Снят по одноименной серии романов Л. Дж. Смит «Дневники вампира».

• Камень, который находится в кольце у Деймона и Стефана — это лазурит.

• Изначально на роль Дэймона Сальваторе пробовались Зак Рериг, Майкл Тревино и Пол Уэсли, впоследствии получившие роли Мэтта, Тайлера и Стефана соответственно.

• Нина Добрев на шесть месяцев младше Стивена Р. МакКуина, хотя по сюжету Елена на два года старше своего брата Джереми.

• На роль Изабеллы Флеминг пробовалась канадская актриса Нив Кэмпбелл.

• Первоначально на роль Аларика Солцмена намеревались взять Джеймса Ван Дер Бика.

• Эшли Симпсон могла сыграть роль Елены Гилберт и Кэтрин Пирс. Роль получила канадская актриса Нина Добрев.
Дневники вампира на NoName Club
Время раздачи: Круглосуточно
[NNM-Club.ru]_The.Vampire.Diaries.S04.1080p.WEB-DL.2xRus.Eng.torrent
 Торрент: Платиновая раздача  Зарегистрирован
 
Скачать


 Зарегистрирован:   01 Июн 2013 07:32:38
 Размер:   41,4 GB  (
 Рейтинг:   4,7 (Голосов: 150)
 Поблагодарили:   386
 Проверка:   Оформление проверено модератором 01 Июн 2013 14:52:35
Как cкачать  ·  Как раздать  ·  Правильно оформить  ·  Поднять ратио!  

_________________
Мои раздачи
wildblack
Uploader 100+
Стаж: 8 лет 4 мес.
Сообщений: 24
Ratio: 749,844
Раздал: 289,7 TB
63.69%
ussr.gif
Господа сидеры! Вы либо раздайте, либо уйдите с раздачи, чтоб можно было позвать тех, кто будет раздавать. При трёх сидерах третий день ничего не могу скачать.
bzike
Стаж: 5 лет 8 мес.
Сообщений: 1
Ratio: 27,999
0%
Привет всем) дайте скорости, пожалуйста)

Добавлено спустя 4 часа 2 минуты 7 секунд:

Нужны раздающие) заранее спасибо
Показать сообщения:   
Начать новую тему   Ответить на тему    Торрент-трекер NNM-Club -> Зарубежные сериалы -> Дневники вампира / Vampire Diaries ; Настоящая кровь / True Blood; Древние / Originals Часовой пояс: GMT + 3
Страницы:   Пред.  1, 2
Страница 2 из 2