Классический форум-трекер
canvas not supported
Нас вместе: 4 095 131

Формула 1. Гран-При Индии. Квалификация.(2012) HDTVRip


 
 
RSS
Начать новую тему   Ответить на тему    Торрент-трекер NNM-Club -> Архив торрентов -> Архив Документалистики и TV
Автор Сообщение
SKVSM ®
Покровитель талантов
Uploader 100+
 
Стаж: 9 лет 4 мес.
Сообщений: 1085
Ratio: 298,025
Поблагодарили: 21491
100%
nnm-club.gif
Формула 1. Гран-При Индии. Квалификация. (2012) HDTVRip
Название: Формула 1. Гран-При Индии. Квалификация
Режиссер / Телекомпания: Россия,
Год выпуска: 2012
Жанр: Спорт, авто
Комментатор: Алексей Попов, Наталья Фабричнова

Описание:
Гран-при Индии — один из этапов чемпионата мира по автогонкам в классе Формула-1. Первая гонка прошла 30 октября 2011 года на Международном автодроме Будды , расположенном в городе Большая Нойда, в 40 км от Дели. Поул-позишн достался пилоту команды "Red Bull" Себастьяну Феттелю. Сохранив лидерство на протяжении всей гонки, а также установив лучшее время круга, Себастьян Феттель впервые завоевал «большой шлем».

Продолжительность: 01:17:32

Видеокодек: Xvid
Битрейт видео: 1699 Кбит/с
Размер кадра: 720 x 400
Качество видео: HDTVRip
Аудиокодек: MP3, 2 ch
Битрейт аудио: 128 Кбит/с

Код:

General
Complete name                            : E:\Formula1_2012_17of20_India_Qualification.avi
Format                                   : AVI
Format/Info                              : Audio Video Interleave
File size                                : 1 018 MiB
Duration                                 : 1h 17mn
Overall bit rate                         : 1 835 Kbps
Writing application                      : TMPGEnc Video Mastering Works 5 Version. 5.0.5.32
Writing library                          : TMPGEnc Video Mastering Works 5 Version. 5.0.5.32

Video
ID                                       : 0
Format                                   : MPEG-4 Visual
Format profile                           : Advanced Simple@L5
Format settings, BVOP                    : 2
Format settings, QPel                    : No
Format settings, GMC                     : No warppoints
Format settings, Matrix                  : Default (H.263)
Muxing mode                              : Packed bitstream
Codec ID                                 : XVID
Codec ID/Hint                            : XviD
Duration                                 : 1h 17mn
Bit rate                                 : 1 699 Kbps
Width                                    : 720 pixels
Height                                   : 400 pixels
Display aspect ratio                     : 16:9
Frame rate                               : 25.000 fps
Color space                              : YUV
Chroma subsampling                       : 4:2:0
Bit depth                                : 8 bits
Scan type                                : Progressive
Compression mode                         : Lossy
Bits/(Pixel*Frame)                       : 0.236
Stream size                              : 942 MiB (93%)
Writing library                          : XviD 1.2.1 (UTC 2008-12-04)

Audio
ID                                       : 1
Format                                   : MPEG Audio
Format version                           : Version 1
Format profile                           : Layer 3
Mode                                     : Joint stereo
Mode extension                           : MS Stereo
Codec ID                                 : 55
Codec ID/Hint                            : MP3
Duration                                 : 1h 17mn
Bit rate mode                            : Constant
Bit rate                                 : 128 Kbps
Channel(s)                               : 2 channels
Sampling rate                            : 48.0 KHz
Compression mode                         : Lossy
Stream size                              : 71.0 MiB (7%)
Alignment                                : Split accross interleaves
Interleave, duration                     : 250 ms (6.25 video frames)
Interleave, preload duration             : 238 ms
Writing library                          : LAME3.97


Скриншоты:




Формула 1 на NoNaMe Club

Время раздачи: 24/7 Круглосуточно до 5 скачавших.
[NNM-Club.ru]_Formula1_2012_17of20_India_Qualification.avi.torrent
 Торрент: Золотая раздача  Зарегистрирован
 
Зарегистрируйтесь и скачайте торрент!
20,2 KB

Примагнититься
 Зарегистрирован:   27 Окт 2012 14:55:53
 Размер:   1018 MB  (
 Рейтинг:   4,8 (Голосов: 32)
 Поблагодарили:   130
 Проверка:   Оформление проверено модератором 27 Окт 2012 18:31:46
Как cкачать  ·  Как раздать  ·  Правильно оформить  ·  Поднять ратио!  
Топик был перенесен из форума Формула 1 в форум Архив Документалистики и TV

Причина переноса: Отсутствие сида более месяца

Исправил релиз - напиши ЛС Microsoft SQL, дав ссылку на релиз.
Если нет ответа 24 часа - нажми на кнопку "Обратить внимание модераторов".
Показать сообщения:   
Начать новую тему   Ответить на тему    Торрент-трекер NNM-Club -> Архив торрентов -> Архив Документалистики и TV Часовой пояс: GMT + 3
Страница 1 из 1