Классический форум-трекер
canvas not supported
Нас вместе: 4 093 635

Максимальный срок / Maximum Conviction (2012) [1080p] BDRemux


 
 
RSS
Начать новую тему   Ответить на тему    Торрент-трекер NNM-Club -> Архив торрентов -> Архив Видео
Автор Сообщение
SKVSM ®
Покровитель талантов
Uploader 100+
 
Стаж: 9 лет 4 мес.
Сообщений: 1083
Ratio: 297,829
Поблагодарили: 21433
100%
nnm-club.gif
Максимальный срок / Maximum Conviction (2012) [1080p] BDRemux

Русское название: Максимальный срок
Оригинальное название: Maximum Conviction
Год выпуска: 2012
Жанр: Боевик, Триллер, Приключения
Производство: США, Steamroller Productions, Voltage Pictures

Описание фильма:
Бывшие сотрудники секретного оперативного подразделения Том Стил и его напарник Мэннинг получают задание — осуществить процедуру закрытия старой тюрьмы, для чего им поручают проконтролировать прибытие двух женщин-заключенных. С первого взгляда, необременительное дело вскоре превращается в поле боевых действий — профессиональная группа наёмников проникает в тюрьму с целью — любой ценой отыскать вновь прибывших узниц. Выяснив, кем являются эти женщины на самом деле, оперативник Стил понимает, что он оказался втянут в нечто более опасное, чем он мог себе представить…

Режиссер: Киони Ваксман
Актеры: Стивен Сигал, Стив Остин, Майкл Паре, Стеф Сонг, Брен Фостер, Кирби Морроу, Зак Сантьяго, Алийа О’Брайен, Тич Грант, Кристофер Гордон, Шарлин Ройер, Лауро Чартрэнд, Гучи Бой, Филлип Митчел, Брюс Кроуфорд, Тоби Левинс, Кимани Рэй Смит, Ричард Стро, Йен Робисан

Продолжительность: 01:37:42
Перевод: Одноголосый закадровый, любительский
Язык субтитров: Английский
Вид субтитров: Вшитые (отключаемые)



Дата мировой премьеры: 6 ноября 2012

Видеокодек: MPEG-4 AVC/H.264
Битрейт видео: ~16.4 Мбит/с
Размер кадра: 1920 x 1080
Качество видео: BDRemux
Аудио:
#1: AC3, 6ch, 448 Кбит/с (Русский)
#2: DTS-HD MA, 6 ch, 2351 Кбит/c (Английский)
Сэмпл: Ссылка
Код:
General
Unique ID                                : 184933766643598167216735591947565309314 (0x8B20F2A8F7663574BD0FAA9263049D82)
Complete name                            : D:\Maximum Conviction 2012 BluRay Remux AVC DTS-HD MA 5.1.mkv
Format                                   : Matroska
Format version                           : Version 2
File size                                : 12.8 GiB
Duration                                 : 1h 37mn
Overall bit rate mode                    : Variable
Overall bit rate                         : 18.8 Mbps
Movie name                               : Denils
Encoded date                             : UTC 2012-10-28 07:34:25
Writing application                      : mkvmerge v4.0.0 ('The Stars were mine') сборка от Jun  6 2010 16:18:42
Writing library                          : libebml v1.0.0 + libmatroska v1.0.0

Video
ID                                       : 1
Format                                   : AVC
Format/Info                              : Advanced Video Codec
Format profile                           : High@L4.1
Format settings, CABAC                   : Yes
Format settings, ReFrames                : 4 frames
Codec ID                                 : V_MPEG4/ISO/AVC
Duration                                 : 1h 37mn
Bit rate mode                            : Variable
Bit rate                                 : 16.4 Mbps
Maximum bit rate                         : 35.0 Mbps
Width                                    : 1 920 pixels
Height                                   : 1 080 pixels
Display aspect ratio                     : 16:9
Frame rate mode                          : Constant
Frame rate                               : 23.976 fps
Color space                              : YUV
Chroma subsampling                       : 4:2:0
Bit depth                                : 8 bits
Scan type                                : Progressive
Bits/(Pixel*Frame)                       : 0.330
Stream size                              : 11.2 GiB (87%)
Language                                 : English
Default                                  : Yes
Forced                                   : Yes

Audio #1
ID                                       : 2
Format                                   : AC-3
Format/Info                              : Audio Coding 3
Mode extension                           : CM (complete main)
Format settings, Endianness              : Big
Codec ID                                 : A_AC3
Duration                                 : 1h 37mn
Bit rate mode                            : Constant
Bit rate                                 : 448 Kbps
Channel(s)                               : 6 channels
Channel positions                        : Front: L C R, Side: L R, LFE
Sampling rate                            : 44.1 KHz
Bit depth                                : 16 bits
Compression mode                         : Lossy
Stream size                              : 313 MiB (2%)
Language                                 : Russian
Default                                  : Yes
Forced                                   : Yes

Audio #2
ID                                       : 3
Format                                   : DTS
Format/Info                              : Digital Theater Systems
Format profile                           : MA / Core
Codec ID                                 : A_DTS
Duration                                 : 1h 37mn
Bit rate mode                            : Variable
Bit rate                                 : 1 576 Kbps / 1 510 Kbps
Channel(s)                               : 6 channels
Channel positions                        : Front: L C R, Side: L R, LFE
Sampling rate                            : 48.0 KHz
Bit depth                                : 16 bits
Compression mode                         : Lossless / Lossy
Language                                 : English
Default                                  : No
Forced                                   : No

Text
ID                                       : 4
Format                                   : UTF-8
Codec ID                                 : S_TEXT/UTF8
Codec ID/Info                            : UTF-8 Plain Text
Language                                 : English
Default                                  : Yes
Forced                                   : Yes

Menu
00:00:00.000                             : en:Chapter 1
00:06:37.983                             : en:Chapter 2
00:15:25.552                             : en:Chapter 3
00:23:29.744                             : en:Chapter 4
00:31:52.287                             : en:Chapter 5
00:40:21.296                             : en:Chapter 6
00:49:52.658                             : en:Chapter 7
00:59:12.301                             : en:Chapter 8
01:07:47.774                             : en:Chapter 9
01:15:53.009                             : en:Chapter 10
01:22:17.768                             : en:Chapter 11
01:30:01.857                             : en:Chapter 12
01:37:41.107                             : en:Chapter 13
Скриншоты:






Время раздачи: 24/7 Круглосуточно до 5 скачавших.
[NNM-Club.ru]_Maximum Conviction 2012 BluRay Remux AVC DTS-HD MA 5.1.mkv.torrent
 Торрент: Платиновая раздача  Зарегистрирован
 
Скачать


 Зарегистрирован:   28 Окт 2012 13:53:04
 Размер:   12,8 GB  (
 Рейтинг:   4,5 (Голосов: 43)
 Поблагодарили:   201
 Проверка:   Оформление проверено модератором 29 Окт 2012 00:07:27
Как cкачать  ·  Как раздать  ·  Правильно оформить  ·  Поднять ратио!  
SKVSM ®
Покровитель талантов
Uploader 100+
 
Стаж: 9 лет 4 мес.
Сообщений: 1083
Ratio: 297,829
Поблагодарили: 21433
100%
nnm-club.gif
Максимальный срок / Maximum Conviction (2012) [720p] BDRip
shulikov2007
Стаж: 8 лет 9 мес.
Сообщений: 166
Ratio: 1,04
100%
ukraine.gif
Хороший боевичок, реально понравился. Качество супер, автору Спасибо !
s00p
Стаж: 12 лет 8 мес.
Сообщений: 517
Ratio: 27,911
Поблагодарили: 8
6.2%
Откуда: Чернобыль =)
На первом скриншоте заметен очень забавный фотошоп лба (а точнее, линии волос) Сигала =)
ddru
Стаж: 11 лет 8 мес.
Сообщений: 4
Ratio: 8,995
51.59%
russia.gif
Стивена Стёгала больше не смотрю, что-то он уже притомил со своим однообразием
TheYo
Стаж: 8 лет
Сообщений: 470
Ratio: 56,314
Раздал: 37,3 TB
100%
Откуда: Under The Moon
russia.gif
Блин, качество картинки просто супер, а вот то, что Перевод: Одноголосый закадровый, любительский я как то упустил :(
SKVSM ®
Покровитель талантов
Uploader 100+
 
Стаж: 9 лет 4 мес.
Сообщений: 1083
Ratio: 297,829
Поблагодарили: 21433
100%
nnm-club.gif
del
Топик был перенесен из форума Зарубежные Фильмы (HD) в форум Архив Видео

Причина переноса: Нет раздающих > 3 месяцев.

Исправил релиз - напиши ЛС Dreemmer, дав ссылку на релиз.
Если нет ответа 24 часа - нажми на кнопку "Обратить внимание модераторов".
Показать сообщения:   
Начать новую тему   Ответить на тему    Торрент-трекер NNM-Club -> Архив торрентов -> Архив Видео Часовой пояс: GMT + 3
Страница 1 из 1