Классический форум-трекер
canvas not supported
Нас вместе: 4 094 556

Формула 1. Гран-При Индии. Гонка. (2012) HDTVRip


 
 
RSS
Начать новую тему   Ответить на тему    Торрент-трекер NNM-Club -> Архив торрентов -> Архив Документалистики и TV
Автор Сообщение
SKVSM ®
Покровитель талантов
Uploader 100+
 
Стаж: 9 лет 4 мес.
Сообщений: 1083
Ratio: 297,918
Поблагодарили: 21457
100%
nnm-club.gif
Формула 1. Гран-При Индии. Гонка. (2012) HDTVRip
Название: Формула 1. Гран-При Индии. Гонка
Режиссер / Телекомпания: Россия,
Год выпуска: 2012
Жанр: Спорт, авто
Комментатор: Алексей Попов, Наталья Фабричнова

Описание:
Гран-при Индии — один из этапов чемпионата мира по автогонкам в классе Формула-1. Первая гонка прошла 30 октября 2011 года на Международном автодроме Будды , расположенном в городе Большая Нойда, в 40 км от Дели. Поул-позишн достался пилоту команды "Red Bull" Себастьяну Феттелю. Сохранив лидерство на протяжении всей гонки, а также установив лучшее время круга, Себастьян Феттель впервые завоевал «большой шлем».

Продолжительность: 02:22:59

Видеокодек: Xvid
Битрейт видео: ~1799 Кбит/с
Размер кадра: 720 x 400
Качество видео: HDTVRip
Аудиокодек: MP3, 2 ch
Битрейт аудио: 128 Кбит/с

Код:

General
Complete name                            : D:\Gran.pri.Indii.Gonka.2012.avi
Format                                   : AVI
Format/Info                              : Audio Video Interleave
File size                                : 1.93 GiB
Duration                                 : 2h 22mn
Overall bit rate                         : 1 936 Kbps
Writing library                          : VirtualDub build 32842/release

Video
ID                                       : 0
Format                                   : MPEG-4 Visual
Format profile                           : Advanced Simple@L5
Format settings, BVOP                    : 2
Format settings, QPel                    : No
Format settings, GMC                     : No warppoints
Format settings, Matrix                  : Default (H.263)
Muxing mode                              : Packed bitstream
Codec ID                                 : XVID
Codec ID/Hint                            : XviD
Duration                                 : 2h 22mn
Bit rate                                 : 1 799 Kbps
Width                                    : 720 pixels
Height                                   : 400 pixels
Display aspect ratio                     : 16:9
Frame rate                               : 25.000 fps
Color space                              : YUV
Chroma subsampling                       : 4:2:0
Bit depth                                : 8 bits
Scan type                                : Progressive
Compression mode                         : Lossy
Bits/(Pixel*Frame)                       : 0.250
Stream size                              : 1.80 GiB (93%)
Writing library                          : XviD 73

Audio
ID                                       : 1
Format                                   : MPEG Audio
Format version                           : Version 1
Format profile                           : Layer 3
Mode                                     : Joint stereo
Mode extension                           : MS Stereo
Codec ID                                 : 55
Codec ID/Hint                            : MP3
Duration                                 : 2h 22mn
Bit rate mode                            : Constant
Bit rate                                 : 128 Kbps
Channel(s)                               : 2 channels
Sampling rate                            : 48.0 KHz
Compression mode                         : Lossy
Stream size                              : 131 MiB (7%)
Alignment                                : Split accross interleaves
Interleave, duration                     : 40 ms (1.00 video frame)
Interleave, preload duration             : 500 ms


Скриншоты:




Формула 1 на NoNaMe Club

Время раздачи: 24/7 Круглосуточно до 5 скачавших.
[NNM-Club.ru]_Gran.pri.Indii.Gonka.2012.torrent
 Торрент: Золотая раздача  Зарегистрирован
 
Зарегистрируйтесь и скачайте торрент!
19,8 KB

Примагнититься
 Зарегистрирован:   28 Окт 2012 15:40:16
 Размер:   1,93 GB  (
 Рейтинг:   4,8 (Голосов: 58)
 Поблагодарили:   223
 Проверка:   Оформление проверено модератором 28 Окт 2012 16:17:38
Как cкачать  ·  Как раздать  ·  Правильно оформить  ·  Поднять ратио!  
olololo201020
Стаж: 8 лет 7 мес.
Сообщений: 38
Ratio: 0,502
Поблагодарили: 3
100%
Откуда: Тюмень.
ussr.gif
Урааа)) Спасибо вам!
vavill
Стаж: 8 лет 10 мес.
Сообщений: 21
Ratio: 4,689
100%
Спасибо!!!
alexk-01
 
Стаж: 8 лет 2 мес.
Сообщений: 2571
Ratio: 161,17
Раздал: 27,26 TB
Поблагодарили: 314
100%
russia.gif
долго ждал... скачал в другом месте((
народ ждет.. инета нет..я жду ..когда наши выложат...
минус

_________________
Странно, что слово «трудновыговариваемо» настолько трудновыговариваемо.
дядюшкаСЕМ
Стаж: 8 лет 9 мес.
Сообщений: 391
Ratio: 20,148
100%
Откуда: МОСКВА Орех стрит
russia.gif
Качайте . . . Посмотрите , интересная была гонка ! ! ! ! :клево:
gres2477
Стаж: 9 лет 5 мес.
Сообщений: 9
Ratio: 7,949
36.36%
ukraine.gif
Ура!!!Наконец то , сейчас качнем.
sema42
Стаж: 7 лет 9 мес.
Сообщений: 110
Ratio: 3,344
100%
ukraine.gif
Спасибо большое!
alexbase
Стаж: 9 лет 10 мес.
Сообщений: 2
Ratio: 1,125
100%
Спасибо!
SKVSM ®
Покровитель талантов
Uploader 100+
 
Стаж: 9 лет 4 мес.
Сообщений: 1083
Ratio: 297,918
Поблагодарили: 21457
100%
nnm-club.gif
olololo201020 писал(а): Перейти к сообщению
Урааа)) Спасибо вам!

vavill писал(а): Перейти к сообщению
Спасибо!!!

sema42 писал(а): Перейти к сообщению
Спасибо большое!

alexbase писал(а): Перейти к сообщению
Спасибо!

:смущение:
naddim
Стаж: 9 лет 1 мес.
Сообщений: 2
Ratio: 1,346
0.22%
russia.gif
Спасибо огромное !!!
Hellowin
Стаж: 9 лет 2 мес.
Сообщений: 59
Ratio: 3,238
100%
russia.gif
В TS-е когда будет?
SKVSM ®
Покровитель талантов
Uploader 100+
 
Стаж: 9 лет 4 мес.
Сообщений: 1083
Ratio: 297,918
Поблагодарили: 21457
100%
nnm-club.gif
Hellowin писал(а): Перейти к сообщению
В TS-е когда будет?

Это не ко мне может кто-то другой зальет.
Cep01
Стаж: 8 лет 5 мес.
Сообщений: 21
Ratio: 2,063
99.31%
germany.gif
огромное спасибо !
Топик был перенесен из форума Формула 1 в форум Архив Документалистики и TV

Причина переноса: Отсутствие сида более месяца

Исправил релиз - напиши ЛС Microsoft SQL, дав ссылку на релиз.
Если нет ответа 24 часа - нажми на кнопку "Обратить внимание модераторов".
Показать сообщения:   
Начать новую тему   Ответить на тему    Торрент-трекер NNM-Club -> Архив торрентов -> Архив Документалистики и TV Часовой пояс: GMT + 3
Страница 1 из 1