Классический форум-трекер
canvas not supported
Нас вместе: 4 094 556

Клин клином / Fire with Fire (2012) [720p] BDRip


 
 
RSS
Начать новую тему   Ответить на тему    Торрент-трекер NNM-Club -> Архив торрентов -> Архив Видео
Автор Сообщение
SKVSM ®
Покровитель талантов
Uploader 100+
 
Стаж: 9 лет 4 мес.
Сообщений: 1083
Ratio: 297,918
Поблагодарили: 21457
100%
nnm-club.gif
Клин клином / Fire with Fire (2012) [720p] BDRip
«Месть имеет свой собственный свод правил.»
Русское название: Клин клином
Оригинальное название: Fire with Fire
Год выпуска: 2012
Производство: США | Cheetah Vision
Жанр: Боевик, Триллер, Криминал
Перевод: Одноголосый закадровый, любительский
Озвучка / Автор перевода: den904 / Janetta
Cубтитры: Отсутствуют

Дата мировой премьеры: 6 ноября 2012

Режиссер: Дэвид Баррет
Продюсер: Фифти Сент, Эндрю Дин, Рэндолл Эмметт
Актеры: Джош Дюамель, Розарио Доусон, Брюс Уиллис, Винсент Д’Онофрио, Фифти Сент, Ричард Шифф, Винни Джонс, Джеймс Лежер, Куинтон Джексон, Эри Вервин

Описание фильма:
Главный герой — пожарный, попадающий в программу защиты свидетелей. Когда же человек, против которого он должен давать показания, угрожает ему, герой вынужден взять правосудие в свои руки, чтобы спасти любимую женщину.



Продолжительность: 01:37:31

Видеокодек: MPEG-4 AVC/H.264
Битрейт видео: ~4906 Кбит/с
Размер кадра: 1280x536
Качество видео: BDRip 720p
Аудио:
#1: AC3, 6 ch, 448 Кбит/с (Русский)
#2: DTS, 6 ch, 1510 Кбит/с (Английский)
Сэмпл: Ссылка
Код:
General
Unique ID                                : 222472981412880410141621669991096277646 (0xA75EBCD812C4C20ABAFBDD3FF9245A8E)
Complete name                            : G:\Fire with Fire (2012)BDRip720p.mkv
Format                                   : Matroska
Format version                           : Version 2
File size                                : 4.68 GiB
Duration                                 : 1h 37mn
Overall bit rate                         : 6 865 Kbps
Encoded date                             : UTC 2012-10-28 21:53:44
Writing application                      : mkvmerge v3.3.0 ('Language') built on Mar 24 2010 14:59:24
Writing library                          : libebml v0.8.0 + libmatroska v0.9.0

Video
ID                                       : 1
Format                                   : AVC
Format/Info                              : Advanced Video Codec
Format profile                           : High@L4.1
Format settings, CABAC                   : Yes
Format settings, ReFrames                : 5 frames
Codec ID                                 : V_MPEG4/ISO/AVC
Duration                                 : 1h 37mn
Bit rate                                 : 4 906 Kbps
Width                                    : 1 280 pixels
Height                                   : 536 pixels
Display aspect ratio                     : 2.40:1
Frame rate                               : 23.976 fps
Color space                              : YUV
Chroma subsampling                       : 4:2:0
Bit depth                                : 8 bits
Scan type                                : Progressive
Bits/(Pixel*Frame)                       : 0.298
Stream size                              : 3.25 GiB (69%)
Writing library                          : x264 core 128 r2216 198a7ea
Encoding settings                        : cabac=1 / ref=5 / deblock=1:0:0 / analyse=0x3:0x133 / me=umh / subme=7 / psy=1 / psy_rd=1.00:0.02 / mixed_ref=1 / me_range=16 / chroma_me=1 / trellis=1 / 8x8dct=1 / cqm=0 / deadzone=21,11 / fast_pskip=0 / chroma_qp_offset=-3 / threads=6 / lookahead_threads=1 / sliced_threads=0 / nr=0 / decimate=1 / interlaced=0 / bluray_compat=0 / constrained_intra=0 / bframes=3 / b_pyramid=2 / b_adapt=1 / b_bias=0 / direct=1 / weightb=1 / open_gop=0 / weightp=2 / keyint=240 / keyint_min=22 / scenecut=40 / intra_refresh=0 / rc_lookahead=40 / rc=2pass / mbtree=1 / bitrate=4906 / ratetol=1.0 / qcomp=0.60 / qpmin=10 / qpmax=51 / qpstep=4 / cplxblur=20.0 / qblur=0.5 / ip_ratio=1.40 / aq=1:1.00
Language                                 : English
Default                                  : No
Forced                                   : No

Audio #1
ID                                       : 2
Format                                   : AC-3
Format/Info                              : Audio Coding 3
Mode extension                           : CM (complete main)
Format settings, Endianness              : Big
Codec ID                                 : A_AC3
Duration                                 : 1h 37mn
Bit rate mode                            : Constant
Bit rate                                 : 448 Kbps
Channel(s)                               : 6 channels
Channel positions                        : Front: L C R, Side: L R, LFE
Sampling rate                            : 48.0 KHz
Bit depth                                : 16 bits
Compression mode                         : Lossy
Stream size                              : 313 MiB (7%)
Language                                 : Russian
Default                                  : Yes
Forced                                   : No

Audio #2
ID                                       : 3
Format                                   : DTS
Format/Info                              : Digital Theater Systems
Codec ID                                 : A_DTS
Duration                                 : 1h 37mn
Bit rate mode                            : Constant
Bit rate                                 : 1 510 Kbps
Channel(s)                               : 6 channels
Channel positions                        : Front: L C R, Side: L R, LFE
Sampling rate                            : 48.0 KHz
Bit depth                                : 24 bits
Compression mode                         : Lossy
Delay relative to video                  : 11ms
Stream size                              : 1.03 GiB (22%)
Language                                 : English
Default                                  : No
Forced                                   : No

Menu
00:00:00.000                             : en:00:00:00.000
00:03:36.091                             : en:00:03:36.091
00:08:34.013                             : en:00:08:34.013
00:16:14.765                             : en:00:16:14.765
00:20:42.283                             : en:00:20:42.283
00:26:58.242                             : en:00:26:58.242
00:31:47.614                             : en:00:31:47.614
00:38:16.419                             : en:00:38:16.419
00:41:43.710                             : en:00:41:43.710
00:45:02.783                             : en:00:45:02.783
00:49:18.622                             : en:00:49:18.622
00:56:32.180                             : en:00:56:32.180
01:00:33.046                             : en:01:00:33.046
01:05:14.119                             : en:01:05:14.119
01:12:39.188                             : en:01:12:39.188
01:23:30.339                             : en:01:23:30.339
Скриншоты:




Время раздачи: 24/7 (до 10 скачавших)
[NNM-Club.ru]_Fire with Fire (2012)BDRip720p.mkv.torrent
 Торрент: Золотая раздача  Зарегистрирован
 
Зарегистрируйтесь и скачайте торрент!
12 KB

 Зарегистрирован:   29 Окт 2012 01:03:23
 Размер:   4,68 GB  (
 Рейтинг:   4,8 (Голосов: 46)
 Поблагодарили:   196
 Проверка:   Оформление проверено модератором 29 Окт 2012 17:44:48
Как cкачать  ·  Как раздать  ·  Правильно оформить  ·  Поднять ратио!  
Vilos
Стаж: 10 лет 8 мес.
Сообщений: 190
Ratio: 13,91
100%
russia.gif
Фильм интересный, только концовка какая-то смазанная.
SKVSM ®
Покровитель талантов
Uploader 100+
 
Стаж: 9 лет 4 мес.
Сообщений: 1083
Ratio: 297,918
Поблагодарили: 21457
100%
nnm-club.gif
Клин клином / Fire with Fire (2012) [H.264/720p-LQ] BDRip
Топик был перенесен из форума Зарубежные Фильмы (HD) в форум Архив Видео

Причина переноса: Нет раздающих > 3 месяцев.

Исправил релиз - напиши ЛС Dreemmer, дав ссылку на релиз.
Если нет ответа 24 часа - нажми на кнопку "Обратить внимание модераторов".
Показать сообщения:   
Начать новую тему   Ответить на тему    Торрент-трекер NNM-Club -> Архив торрентов -> Архив Видео Часовой пояс: GMT + 3
Страница 1 из 1