Классический форум-трекер
canvas not supported
Нас вместе: 4 095 216

Клин клином / Fire with Fire (2012) [H.264/720p-LQ] BDRip


 
 
RSS
Начать новую тему   Ответить на тему    Торрент-трекер NNM-Club -> Архив торрентов -> Архив Видео
Автор Сообщение
SKVSM ®
Покровитель талантов
Uploader 100+
 
Стаж: 9 лет 4 мес.
Сообщений: 1084
Ratio: 298,004
Поблагодарили: 21479
100%
nnm-club.gif
Клин клином / Fire with Fire (2012) [H.264/720p-LQ] BDRip
«Месть имеет свой собственный свод правил.»
Русское название: Клин клином
Оригинальное название: Fire with Fire
Год выпуска: 2012
Производство: США | Cheetah Vision
Жанр: Боевик, Триллер, Криминал
Перевод: Одноголосый закадровый, любительский
Озвучка / Автор перевода: den904 / Janetta
Cубтитры: Отсутствуют

Дата мировой премьеры: 6 ноября 2012

Режиссер: Дэвид Баррет
Продюсер: Фифти Сент, Эндрю Дин, Рэндолл Эмметт
Актеры: Джош Дюамель, Розарио Доусон, Брюс Уиллис, Винсент Д’Онофрио, Фифти Сент, Ричард Шифф, Винни Джонс, Джеймс Лежер, Куинтон Джексон, Эри Вервин

Описание фильма:
Главный герой — пожарный, попадающий в программу защиты свидетелей. Когда же человек, против которого он должен давать показания, угрожает ему, герой вынужден взять правосудие в свои руки, чтобы спасти любимую женщину.



Продолжительность: 01:37:31
Качество видео: BDRip [H.264/720p-LQ]

Видеокодек: MPEG-4 AVC/H.264
Битрейт видео: ~3300Кбит/с
Размер кадра: 1280 x 540
Аудио #1: AC3 5.1, 448 Кбит/с, 48.0 КГц (Английский)
Аудио #2: AC3 5.1, 448 Кбит/с, 48.0 КГц (Русский)
Сэмпл: Ссылка
Код:

General
Unique ID                                : 217936143156735937951808647976535583057 (0xA3F4F972BC6929E18B58BE03E8D9E951)
Complete name                            : G:\Fire.with.Fire.(2012).BDRip.[720p-LQ].X264.AC3.mkv
Format                                   : Matroska
Format version                           : Version 2
File size                                : 2.82 GiB
Duration                                 : 1h 37mn
Overall bit rate                         : 4 142 Kbps
Encoded date                             : UTC 2012-10-29 06:51:53
Writing application                      : mkvmerge v3.3.0 ('Language') built on Mar 24 2010 14:59:24
Writing library                          : libebml v0.8.0 + libmatroska v0.9.0

Video
ID                                       : 1
Format                                   : AVC
Format/Info                              : Advanced Video Codec
Format profile                           : Main@L3.1
Format settings, CABAC                   : Yes
Format settings, ReFrames                : 2 frames
Codec ID                                 : V_MPEG4/ISO/AVC
Duration                                 : 1h 37mn
Bit rate                                 : 3 300 Kbps
Width                                    : 1 280 pixels
Height                                   : 540 pixels
Display aspect ratio                     : 2.40:1
Frame rate mode                          : Variable / Variable
Frame rate                               : 23.976 fps
Color space                              : YUV
Chroma subsampling                       : 4:2:0
Bit depth                                : 8 bits
Scan type                                : Progressive
Bits/(Pixel*Frame)                       : 0.199
Stream size                              : 2.15 GiB (76%)
Writing library                          : x264 core 112 r1834 a51816a
Encoding settings                        : cabac=1 / ref=1 / deblock=1:0:0 / analyse=0x1:0 / me=dia / subme=2 / psy=1 / psy_rd=0.00:0.00 / mixed_ref=0 / me_range=16 / chroma_me=1 / trellis=0 / 8x8dct=0 / cqm=0 / deadzone=21,11 / fast_pskip=1 / chroma_qp_offset=0 / threads=4 / sliced_threads=0 / nr=0 / decimate=1 / interlaced=0 / constrained_intra=0 / bframes=3 / b_pyramid=0 / b_adapt=1 / b_bias=0 / direct=3 / weightb=0 / open_gop=0 / weightp=2 / keyint=250 / keyint_min=25 / scenecut=40 / intra_refresh=0 / rc_lookahead=40 / rc=abr / mbtree=1 / bitrate=3300 / ratetol=1.0 / qcomp=0.60 / qpmin=10 / qpmax=51 / qpstep=4 / ip_ratio=1.41 / aq=1:1.00
Default                                  : Yes
Forced                                   : No

Audio #1
ID                                       : 2
Format                                   : AC-3
Format/Info                              : Audio Coding 3
Mode extension                           : CM (complete main)
Format settings, Endianness              : Big
Codec ID                                 : A_AC3
Duration                                 : 1h 37mn
Bit rate mode                            : Constant
Bit rate                                 : 448 Kbps
Channel(s)                               : 6 channels
Channel positions                        : Front: L C R, Side: L R, LFE
Sampling rate                            : 48.0 KHz
Bit depth                                : 16 bits
Compression mode                         : Lossy
Stream size                              : 313 MiB (11%)
Title                                    : Fire.with.Fire.2012.720p.BluRay.x264.DTS-HDChina
Language                                 : English
Default                                  : No
Forced                                   : No

Audio #2
ID                                       : 5
Format                                   : AC-3
Format/Info                              : Audio Coding 3
Mode extension                           : CM (complete main)
Format settings, Endianness              : Big
Codec ID                                 : A_AC3
Duration                                 : 1h 37mn
Bit rate mode                            : Constant
Bit rate                                 : 448 Kbps
Channel(s)                               : 6 channels
Channel positions                        : Front: L C R, Side: L R, LFE
Sampling rate                            : 48.0 KHz
Bit depth                                : 16 bits
Compression mode                         : Lossy
Stream size                              : 313 MiB (11%)
Language                                 : Russian
Default                                  : Yes
Forced                                   : No

Скриншоты:




Время раздачи: 24/7 (до 10 скачавших)
[NNM-Club.ru]_Fire.with.Fire.2012.720p-LQ.BDRip.mkv.torrent
 Торрент: Золотая раздача  Зарегистрирован
 
Зарегистрируйтесь и скачайте торрент!
14,4 KB

Примагнититься
 Зарегистрирован:   29 Окт 2012 10:18:24
 Размер:   2,82 GB  (
 Рейтинг:   4,4 (Голосов: 56)
 Поблагодарили:   237
 Проверка:   Оформление проверено модератором 29 Окт 2012 15:02:17
Как cкачать  ·  Как раздать  ·  Правильно оформить  ·  Поднять ратио!  
SKVSM ®
Покровитель талантов
Uploader 100+
 
Стаж: 9 лет 4 мес.
Сообщений: 1084
Ratio: 298,004
Поблагодарили: 21479
100%
nnm-club.gif
Клин клином / Fire with Fire (2012) [720p] BDRip
SVtochka
Стаж: 8 лет 7 мес.
Сообщений: 59
Ratio: 0,342
100%
russia.gif
посмотрим :незнает:
xerographics
Стаж: 9 лет 7 мес.
Сообщений: 4
Ratio: 8,53
100%
ussr.gif
Что, ещё никто не смотрел? Или всех угнетает одноголосый перевод?

_________________
Дико скучный и интересный. Наверно, но не вероятно, что, может быть, вероятно добр, отзывчив и многогранен.
Gunlaker
Стаж: 8 лет 3 мес.
Сообщений: 14
Ratio: 0,67
2.95%
germany.gif
Интересно..
spartak78
Стаж: 10 лет 10 мес.
Сообщений: 103
Ratio: 5,056
100%
russia.gif
Даже не верится,что один из любимейших актёров, стал сниматься в таком откровенном г..не!
urban junglist
Стаж: 8 лет 2 мес.
Сообщений: 66
Ratio: 46,095
Раздал: 14,31 TB
100%
Откуда: Tambov City
russia.gif
одноголосый перевод канешн... не оч забавная тема... но фильмец веселый, смотрел с большим интересом... а втору спасибо за релизззз...)
andrwers
Стаж: 10 лет 4 мес.
Сообщений: 435
Ratio: 12,494
100%
Гляну ради интереса, хоть и перевод одноголосый

_________________
jonik555
Стаж: 12 лет 1 мес.
Сообщений: 770
Ratio: 56,073
Раздал: 31,44 TB
Поблагодарили: 26509
100%
pirates.png
Второй раз нет желания этот фильм смотреть!
Релизеру спасибо!
totalit
Стаж: 7 лет 9 мес.
Сообщений: 169
Ratio: 3,336
100%
Откуда: Екатеринбург
russia.gif
Киношка--Наивный Рыбий Понос.
Топик был перенесен из форума Зарубежные Новинки (HD*Rip/LQ, DVDRip) в форум Архив Видео

Причина переноса: на трекере доступен звук с лицензии
Lelya_K
Показать сообщения:   
Начать новую тему   Ответить на тему    Торрент-трекер NNM-Club -> Архив торрентов -> Архив Видео Часовой пояс: GMT + 3
Страница 1 из 1