Классический форум-трекер
canvas not supported
Нас вместе: 4 095 106

[EN]Бэтмен / Batman (1966-1968) TVRip [Сезон 1-3, серий 120]


 
 
RSS
Начать новую тему   Ответить на тему    Торрент-трекер NNM-Club -> Зарубежные сериалы -> Сериалы без перевода
Автор Сообщение
Pasha-UKR ®
Стаж: 9 лет 10 мес.
Сообщений: 61
Ratio: 62,036
Поблагодарили: 4312
100%
usa.gif
Бэтмен / Batman (1966-1968) TVRip [Сезон 1-3, серий 120]
Русское название: Бэтмен
Оригинальное название: Batman
Год выпуска: 1966-1968
Жанр: Фантастика, Боевик, Комедия

Перевод: Отсутствует
Язык: Английский
Вид субтитров: Отсутствуют



Дата мировой премьеры: 12.01.1966

Режиссер: Роберт Батлер, Джеймс Нилсон, Ларри Пирс
Актеры: Адам Уэст, Берт Уорд, Алан Напье, Нил Хэмилтон, Стэффорд Реп, Мэдж Блейк, Фрэнк Горшин, Джилл Ст. Джон, Аллен Джаффе, Майкл Фокс

Описание фильма:
Киноверсия сериала-комикса 60-х годов.

Бэтмен и Робин защищают планету от преступного синдиката, в котором объединили свои силы Джокер, Пингвин, Человек-Загадка и Женщина-Кошка.
Задолго до Китона и Кристиана Бейла главным Бэтменом Америки был Адам Вест.

Сериал «Бэтмен» появился на несколько лет раньше шоу «Монти Пайтон» и задолго до «Аэроплана», но его просмотр оставил у меня практически аналогичные впечатления. Бэтмен здесь, несмотря на то, что выглядит как актер с детских праздников, одетый в костюм, сшитый на скорую руку, ведет себя как настоящий герой, не позволяя себе даже парковаться в запрещенных местах, не говоря уже о разрушении собственности граждан. Каждый эпизод шоу полон абсурдного юмора, построенного на контрасте между абсолютной серьезностью диалогов и закадрового текста и полной нелепостью происходящего на экране.

Рекомендую для ценителей жанра кино-пародии прежде всего.
Продолжительность: 120 x ~00:22:00
Качество видео: TVRip

Видеокодек: Xvid
Битрейт видео: ~856 kb/s
Размер кадра: 512 х 384
Аудиокодек: AC3
Битрейт аудио: 256 kb/s, СBR, 2 канала
Общее
Полное имя : D:\Torrent\Batman.(1966).TVRip.[Seasons 1-3]\Batman (1966) - Season 1\Batman (1966) - S1E01 - Hi Diddle Riddle.avi
Формат : AVI
Формат/Информация : Audio Video Interleave
Размер файла : 175 Мбайт
Продолжительность : 21 м.
Общий поток : 1118 Кбит/сек
Программа кодирования : VirtualDubMod 1.5.4.1 (build 2178/release)
Библиотека кодирования : VirtualDubMod build 2178/release

Видео
Идентификатор : 0
Формат : MPEG-4 Visual
Профиль формата : Advanced Simple@L5
Параметр BVOP формата : 1
Параметр QPel формата : Нет
Параметр GMC формата : Без точки перехода
Параметр матрицы формата : Выборочная
Идентификатор кодека : XVID
Идентификатор кодека/Подсказка : XviD
Продолжительность : 21 м.
Битрейт : 856 Кбит/сек
Ширина : 512 пикселей
Высота : 384 пикселя
Соотношение сторон : 4:3
Частота кадров : 23,976 кадра/сек
Цветовое пространство : YUV
Субдискретизация насыщенности : 4:2:0
Битовая глубина : 8 бит
Тип развёртки : Прогрессивная
Метод сжатия : С потерями
Бит/(Пиксели*Кадры) : 0.181
Размер потока : 134 Мбайт (77%)
Библиотека кодирования : XviD 1.2.0SMP (UTC 2006-01-08)

Аудио
Идентификатор : 1
Формат : AC-3
Формат/Информация : Audio Coding 3
Расширение режима : CM (complete main)
Параметр Endianness формата : Big
Идентификатор кодека : 2000
Продолжительность : 21 м.
Вид битрейта : Постоянный
Битрейт : 256 Кбит/сек
Каналы : 2 канала
Расположение каналов : Front: L R
Частота : 48,0 КГц
Битовая глубина : 16 бит
Метод сжатия : С потерями
Задержка видео : 7 мс.
Размер потока : 40,1 Мбайт (23%)
Выравнивание : Разделение по промежуткам
Продолжительность промежутка : 96 мс. (2,30 видеокадра)
Время предзагрузки промежутка : 96 мс.
Скриншоты:
Для сериала Мистер Зеро был переименован в Мистера Фриза.

Исполнитель роли Ридлера, Фрэнк Горшин, был номинирован на Эмми.

Всем приятного просмотра!
Не забываем нажимать
Вам не сложно, а мне приятно =)


Время раздачи: 24/7
[NNM-Club.ru]_Batman.(1966-1968).TVRip.[Seasons 1-3].torrent
 Торрент: Платиновая раздача  Зарегистрирован
 
Скачать


 Зарегистрирован:   29 Окт 2012 22:12:16
 Размер:   20,6 GB  (
 Рейтинг:   4,6 (Голосов: 21)
 Поблагодарили:   54
 Проверка:   Оформление проверено модератором 29 Окт 2012 23:42:49
Как cкачать  ·  Как раздать  ·  Правильно оформить  ·  Поднять ратио!  
aum777
Стаж: 8 лет 9 мес.
Сообщений: 12
Ratio: 2,442
19.9%
russia.gif
где раздача ??
Какой смысл создавать торрент без раздачи ?
Pasha-UKR ®
Стаж: 9 лет 10 мес.
Сообщений: 61
Ratio: 62,036
Поблагодарили: 4312
100%
usa.gif
Уважаемый aum777, с момента создания этого релиза я, практически, не прекращал его раздачу.
ночноекрыло
Стаж: 5 лет 5 мес.
Сообщений: 1
100%
Спасибо за сериал! А субтитров никаких нет? Даже английских?
redlt
Стаж: 7 лет 10 мес.
Сообщений: 12
Ratio: 40,724
Поблагодарили: 224
100%
russia.gif
Безумное спасибо, весьма специфично впервые смотреть сейчас с такой выдержкой тех лет.
polgarem
Стаж: 11 лет
Сообщений: 7
Ratio: 10,614
28.3%
russia.gif
встаньте пожалуйста на раздачу
Показать сообщения:   
Начать новую тему   Ответить на тему    Торрент-трекер NNM-Club -> Зарубежные сериалы -> Сериалы без перевода Часовой пояс: GMT + 3
Страница 1 из 1