Классический форум-трекер
canvas not supported
Нас вместе: 4 075 073

Отбросы / Плохие / Долбанутые / Misfits (2012) HDTVRip (Сезон 4, серии 1-8 из 8) [Кубик в кубе]


 
 
RSS
Начать новую тему   Ответить на тему    Торрент-трекер NNM-Club -> Зарубежные сериалы -> Отбросы / Misfits
Автор Сообщение
TollayaEkb ®
Стаж: 9 лет 3 мес.
Сообщений: 5781
Ratio: 2181,467
Раздал: 116,5 TB
Поблагодарили: 217030
100%
Откуда: Екб
russia.gif
Отбросы / Плохие / Долбанутые / Misfits (2012) HDTVRip (Сезон 4, серии 1-8 из 8) [Кубик в кубе]
Год выхода: 2012
Производство: Великобритания
Жанр: Комедия, фантастика
Продолжительность: ~ 00:45:00 серия

Перевод: Профессиональный двухголосый закадровый - Кубик в кубе

Режиссер: Том Грин, Том Харпер
В ролях: Джозеф Гилган, Натан Стюарт-Джарретт, Нейтан МакМаллен, Карла Кроум, Мэтт Стокоу, Мэттью МакНалти, Шон Дули и др.

Описание:
Представьте себе: если взять культовый английский сериал skins и смешать его с культовым американским сериалом heroes, хорошенько взболтать, добавить перчинку нецензурности, щедро сыпануть отменного английского черного юмора и перемешать, то получится сериал misfits, продукт отменного качества!

Внимание! Присутствует ненормативная лексика!


Качество: HDTVRip
Видео: XviD, 1654 Кбит/с, 720x400, 25.000 fps, 0.230
Аудио: MP3, 44.1 KHz, 2 ch, 128 Кбит/с)(RU, EN)

| Все раздачи|
\\\Misfits.S04.k3\Misfits.S04E01.k3.avi
Format : AVI
Format/Info : Audio Video Interleave
File size : 620 MiB
Duration : 45mn 1s
Overall bit rate : 1 924 Kbps
Writing application : VirtualDubMod 1.5.10.2 (build 2540/release)
Writing library : VirtualDubMod build 2540/release
Video #0
ID : 0
Format : MPEG-4 Visual
Format profile : AdvancedSimple@L5
Format settings, BVOP : Yes
Format settings, QPel : No
Format settings, GMC : No warppoints
Format settings, Matrix : Default (MPEG)
Codec ID : XVID
Codec ID/Hint : XviD
Duration : 45mn 1s
Bit rate : 1 654 Kbps
Width : 720 pixels
Height : 400 pixels
Display aspect ratio : 16:9
Frame rate : 25.000 fps
Resolution : 24 bits
Colorimetry : 4:2:0
Scan type : Progressive
Bits/(Pixel*Frame) : 0.230
Stream size : 533 MiB (86%)
Writing library : XviD 1.2.1 (UTC 2008-12-04)
Audio #1
ID : 1
Format : MPEG Audio
Format version : Version 1
Format profile : Layer 3
Codec ID : 55
Codec ID/Hint : MP3
Duration : 45mn 1s
Bit rate mode : Constant
Bit rate : 128 Kbps
Channel(s) : 2 channels
Sampling rate : 44.1 KHz
Resolution : 16 bits
Stream size : 41.2 MiB (7%)
Alignment : Split accross interleaves
Interleave, duration : 40 ms (1.00 video frame)
Interleave, preload duration : 500 ms
Audio #2
ID : 2
Format : MPEG Audio
Format version : Version 1
Format profile : Layer 3
Codec ID : 55
Codec ID/Hint : MP3
Duration : 45mn 1s
Bit rate mode : Constant
Bit rate : 128 Kbps
Channel(s) : 2 channels
Sampling rate : 48.0 KHz
Resolution : 16 bits
Stream size : 41.2 MiB (7%)
Alignment : Aligned on interleaves
Interleave, duration : 40 ms (1.00 video frame)
Interleave, preload duration : 504 ms
Writing library : LAME3.99r
Encoding settings : -m j -V 4 -q 2 -lowpass 17 -b 128

<<<Скриншоты>>>

Время раздачи: 24/7 - круглосуточно (до первых сидов - потом по возможности)
[NNM-Club.ru]_Misfits.S04.k3.torrent
 Торрент: Платиновая раздача  Зарегистрирован
 
Скачать


 Зарегистрирован:   18 Дек 2012 08:33:08
 Размер:   4,56 GB  (
 Рейтинг:   4,7 (Голосов: 351)
 Поблагодарили:   922
 Проверка:   Оформление проверено модератором 18 Дек 2012 09:00:48
Как cкачать  ·  Как раздать  ·  Правильно оформить  ·  Поднять ратио!  
Etan Bateman
Стаж: 9 лет 4 мес.
Сообщений: 59
Ratio: 36,574
100%
russia.gif
Сериал себя изжил. но досмотреть до конца придётся.) хотя бы ради Руди.)
denzel1403
Стаж: 9 лет 11 мес.
Сообщений: 284
Ratio: 1,688
Поблагодарили: 1916
100%
Откуда: ZP
ukraine.gif
жаль что почти всех актеров поменяли(
спасибо
hookiman
Стаж: 8 лет 11 мес.
Сообщений: 308
Ratio: 2,049
18.45%
да.... жаль .... отбросы уже не ТОРТ *(
pro100Aleks
Стаж: 8 лет 1 мес.
Сообщений: 430
Раздал: 12,5 MB
100%
russia.gif
спасибо ,классный сериал :стеб:
pavelkoreshkov
Стаж: 9 лет 3 мес.
Сообщений: 38
Ratio: 13,522
16.74%
Откуда: Иваново
uk.gif
Да не, угарный все равно сезончик.
Интрига осталось жэ)
Malatesta
Стаж: 7 лет 5 мес.
Сообщений: 9
Ratio: 7,838
16.67%
Такое впечатление, что сериал на Нэйтоне держался. Без него лабуда какая-то(
600kg
Стаж: 9 лет 1 мес.
Сообщений: 12
Ratio: 7,865
47.75%
Нейтона нет, интриги нет, интерес к сериалу пропадает с геометрической прогрессией. Досмотрю лишь ради концовки.
Пс. Шутки все более плоские, игра актеров все ужаснее, надзиратель радует немного.
600kg
Стаж: 9 лет 1 мес.
Сообщений: 12
Ratio: 7,865
47.75%
Загибаются отбросы без старых персонажей, и, конечно, без Нейтона. =DD
Зря сезон открывали.
Maxxx76
Стаж: 11 лет 6 мес.
Сообщений: 121
Ratio: 8,554
100%
Откуда: Питерские мы:)
russia.gif
Мда.. пропал куда-то весь "шарм" сериала. Не блещет, чесговоря. :огорчение: Кроме Рудика и нового надзирателя остальные персонажи -безликое и УГ О нет

_________________
"Невежеству никто не придает значение.Невежество испражняется в Лес.Невежество всегда на что-нибудь испражняется."А.и Б. Стругацкие
BerserkerRR
Стаж: 12 лет
Сообщений: 221
Ratio: 114,57
Поблагодарили: 76
100%
Откуда: Москва, Иваново
russia.gif
А мне нравится. В первую очердь я ценю чорный юмор. А он остался 8) Не стоит привязываться к героям. Главное сама суть *)
XtaZZZy
Стаж: 8 лет 4 мес.
Сообщений: 3
Ratio: 8,78
100%
А я абсолютно согласен с BerserkerRR. Персонажи меняются, а отбросы остаются всегда. В общем и целом фильм на высоте. Старичков, конечно, не хватает. Но и "новички" довольно не плохо себя отигрывают.
rais43
Стаж: 8 лет 9 мес.
Сообщений: 103
Ratio: 309,69
Раздал: 24,04 TB
100%
Откуда: С уральских гор Мы тоже горцы
russia.gif
мне тоже понравился сериал

_________________
надо чёто написать CD тихо не DVD меня
6Chikper6
Стаж: 9 лет 2 мес.
Сообщений: 254
Ratio: 0,723
100%
romania.gif
Благодарю! Ржачный сериал!!!
вихт
Стаж: 4 года
Сообщений: 5
44.44%
Мне вообще непонятно, зачем было менять Нейтона на Руди - персонажи практически идентичны. Только Нейтон более непосредственный, что-ли, видно, что он старается прожить как можно веселее и интереснее. А у Руди в башке только сперма. Да и на малолетнего преступника он как-то не тянет. Как-то он на 30-летнего раздолбая похож, а не на подростка. А 30летний озабоченный инфантильный раздолбай не так убедителен, как 17 летний озабоченный инфантильный раздолбай. В общем, если и заменять Нейтона, то не на постаревший клон Нейтона.
Показать сообщения:   
Начать новую тему   Ответить на тему    Торрент-трекер NNM-Club -> Зарубежные сериалы -> Отбросы / Misfits Часовой пояс: GMT + 3
Страница 1 из 1